<?xml version="1.0" standalone="no"?>
<!DOCTYPE svg PUBLIC "-//W3C//DTD SVG 1.1//EN" "http://www.w3.org/Graphics/SVG/1.1/DTD/svg11.dtd" >
<svg xmlns="http://www.w3.org/2000/svg" xmlns:xlink="http://www.w3.org/1999/xlink" version="1.1">
<metadata>
Created by FontForge 20170731 at Mon May 10 16:46:40 2021
 By Aleksey,,,
Copyright 2003 Monotype Imaging, Inc. All rights reserved.
</metadata>
<defs>
<font id="MundoSansStd-Light" horiz-adv-x="1034" >
  <font-face 
    font-family="Mundo Sans Std Light"
    font-weight="300"
    font-stretch="normal"
    units-per-em="2048"
    panose-1="2 0 3 2 2 1 4 2 3 3"
    ascent="1491"
    descent="-557"
    x-height="971"
    cap-height="1386"
    bbox="-477 -545 1886 1772"
    underline-thickness="40"
    underline-position="-312"
    unicode-range="U+0020-FB02"
  />
<missing-glyph horiz-adv-x="1024" 
d="M25 0v1362h972v-1362h-972zM180 1266l332 -498l330 498h-662zM123 1178v-992q0 -1 82.5 123t164.5 249l83 124zM901 1178l-332 -496l332 -498v994zM842 98l-330 496l-332 -496h662z" />
    <glyph glyph-name="fi" unicode="fi" horiz-adv-x="1011" 
d="M852 1313q0 -31 -20.5 -50.5t-47.5 -19.5q-29 0 -48 19.5t-19 50.5q0 30 18.5 49.5t48.5 19.5q29 0 48.5 -18.5t19.5 -50.5zM834 0h-95q2 72 2 410v159q0 308 -4 404l97 10q0 -59 -1.5 -188.5t-1.5 -225.5v-157q0 -310 3 -412zM608 1456l-10 -90q-43 31 -121 31
q-90 0 -145.5 -70.5t-55.5 -214.5v-141h263l-13 -78h-250v-893h-96q6 156 6 893h-118l12 78h106v145q0 169 82 267t217 98q71 0 123 -25z" />
    <glyph glyph-name="fl" unicode="fl" horiz-adv-x="997" 
d="M827 0h-100q8 272 8 522v314q0 191 -6 632l98 2q-4 -340 -4 -624v-322q0 -352 4 -524zM608 1456l-10 -90q-43 31 -121 31q-90 0 -145.5 -70.5t-55.5 -214.5v-141h263l-13 -78h-250v-893h-96q6 156 6 893h-118l12 78h106v145q0 169 82 267t217 98q71 0 123 -25z" />
    <glyph glyph-name=".notdef" horiz-adv-x="1024" 
d="M25 0v1362h972v-1362h-972zM180 1266l332 -498l330 498h-662zM123 1178v-992q0 -1 82.5 123t164.5 249l83 124zM901 1178l-332 -496l332 -498v994zM842 98l-330 496l-332 -496h662z" />
    <glyph glyph-name=".null" horiz-adv-x="0" 
 />
    <glyph glyph-name="nonmarkingreturn" horiz-adv-x="682" 
 />
    <glyph glyph-name="space" unicode=" " horiz-adv-x="499" 
 />
    <glyph glyph-name="exclam" unicode="!" horiz-adv-x="634" 
d="M373 1382l-17 -1067h-71l-15 1067h103zM393 57q0 -35 -22.5 -56t-53.5 -21q-33 0 -54 21t-21 52q0 35 20.5 58.5t54.5 23.5t55 -21t21 -57z" />
    <glyph glyph-name="quotedbl" unicode="&#x22;" horiz-adv-x="550" 
d="M461 1468l-21 -489h-59l-16 489h96zM188 1468l-20 -489h-59l-19 489h98z" />
    <glyph glyph-name="numbersign" unicode="#" horiz-adv-x="1013" 
d="M975 963l-8 -76h-248l-47 -369h254l-8 -76h-259l-55 -442h-72l56 442h-230l-57 -442h-72l58 442h-248l8 76h250l47 369h-254l8 76h256l56 423h71l-53 -423h227l58 423h71l-57 -423h248zM647 887h-229l-49 -369h229z" />
    <glyph glyph-name="dollar" unicode="$" 
d="M854 360q0 -128 -88.5 -219.5t-247.5 -111.5l-2 -250h-80l2 246q-83 0 -161 27t-134 75l17 102q54 -63 136 -95t165 -32q142 0 221.5 69.5t79.5 182.5q0 35 -8.5 65.5t-20.5 53.5t-34.5 45.5t-41.5 37t-51.5 32.5t-53.5 28t-58 27q-135 61 -187 99q-135 97 -141 262v16
q0 133 90 228t242 112l4 239h80l-7 -233q137 -3 252 -70l-20 -100q-97 90 -270 90q-125 0 -203 -73.5t-78 -178.5q0 -116 55.5 -178t225.5 -137q171 -77 244 -157.5t73 -201.5z" />
    <glyph glyph-name="percent" unicode="%" horiz-adv-x="1333" 
d="M614 1085q0 -142 -78.5 -224.5t-197.5 -82.5q-115 0 -188.5 77t-73.5 210q0 147 79 231t201 84q123 0 190.5 -74t67.5 -221zM1229 1434l-1012 -1469h-98l1011 1469h99zM1255 301q0 -141 -79.5 -224t-198.5 -83q-114 0 -186 79.5t-72 213.5q0 146 76.5 229.5t199.5 83.5
t191.5 -75.5t68.5 -223.5zM541 1085q0 114 -53.5 174t-135.5 60q-90 0 -144 -64.5t-54 -177.5q0 -114 52.5 -174.5t139.5 -60.5q90 0 142.5 64.5t52.5 178.5zM1178 301q0 116 -52 173.5t-137 57.5q-91 0 -143.5 -61t-52.5 -174q0 -114 53 -175t141 -61q90 0 140.5 62.5
t50.5 177.5z" />
    <glyph glyph-name="ampersand" unicode="&#x26;" horiz-adv-x="1376" 
d="M1329 8q-65 -41 -80 -49q-81 72 -231 215q-104 -104 -208 -150.5t-243 -46.5q-185 0 -302.5 106.5t-117.5 289.5q0 142 78 242t226 180q-154 176 -154 321q0 129 86 211t231 82q116 0 193.5 -72t77.5 -188q0 -60 -20.5 -110.5t-63.5 -95t-96.5 -82t-133.5 -81.5
q67 -83 205.5 -234.5t239.5 -250.5q57 74 91 204.5t28 243.5q8 1 37.5 4.5t52.5 6.5q0 -133 -39 -270t-111 -242q186 -178 254 -234zM801 1141q0 89 -56.5 143.5t-152.5 54.5q-92 0 -152.5 -60.5t-60.5 -150.5q0 -69 32.5 -136t110.5 -158q151 78 215 147t64 160zM963 225
q-84 83 -230.5 243.5t-234.5 266.5q-140 -74 -201 -160t-61 -194q0 -149 96.5 -238.5t255.5 -89.5q209 0 375 172z" />
    <glyph glyph-name="quotesingle" unicode="'" horiz-adv-x="288" 
d="M195 1468l-21 -489h-59l-21 489h101z" />
    <glyph glyph-name="parenleft" unicode="(" horiz-adv-x="538" 
d="M492 1532q-150 -213 -226 -463t-76 -506q0 -263 75.5 -505.5t209.5 -438.5l-69 -45q-149 220 -225.5 470t-76.5 511q0 544 316 1008z" />
    <glyph glyph-name="parenright" unicode=")" horiz-adv-x="538" 
d="M434 594q0 -550 -315 -1012l-72 35q150 213 225.5 462t75.5 505q0 263 -75.5 506.5t-209.5 439.5l70 43q301 -446 301 -979z" />
    <glyph glyph-name="asterisk" unicode="*" horiz-adv-x="731" 
d="M684 1104l-4 -74l-281 21l113 -293l-74 -23l-98 299l-238 -194l-49 61l254 178l-231 201l53 61l221 -217l99 301l71 -22l-117 -295z" />
    <glyph glyph-name="plus" unicode="+" 
d="M911 535h-352v-353h-84v353h-352v81h352v353h84v-353h352v-81z" />
    <glyph glyph-name="comma" unicode="," horiz-adv-x="409" 
d="M262 84q0 -77 -21.5 -168.5t-58.5 -153.5l-57 17q39 91 39 209q0 74 -21 145l115 17q4 -23 4 -66z" />
    <glyph glyph-name="hyphen" unicode="-" horiz-adv-x="765" 
d="M629 520h-492v84h492v-84z" />
    <glyph glyph-name="period" unicode="." horiz-adv-x="409" 
d="M279 57q0 -35 -21.5 -56t-52.5 -21q-34 0 -56 21t-22 52q0 35 21.5 58.5t56.5 23.5q34 0 54 -21t20 -57z" />
    <glyph glyph-name="slash" unicode="/" horiz-adv-x="716" 
d="M748 1434l-691 -1635h-86l691 1635h86z" />
    <glyph glyph-name="zero" unicode="0" 
d="M938 698q0 -365 -115.5 -543t-312.5 -178q-87 0 -161 40.5t-132 121.5t-90.5 216t-32.5 311q0 194 33.5 339.5t95 232.5t141 129t177.5 42q397 0 397 -711zM854 684q0 651 -324 651q-160 0 -254 -163t-94 -498q0 -311 91 -465t249 -154q149 0 240.5 159t91.5 470z" />
    <glyph glyph-name="one" unicode="1" 
d="M612 0h-96q4 230 4 492v843l-338 -98v90l426 115v-948q0 -252 4 -494z" />
    <glyph glyph-name="two" unicode="2" 
d="M918 88l-5 -88h-829l-10 63q151 163 461 531q154 186 206 284t52 177q0 118 -70 195t-203 77q-92 0 -177 -42.5t-150 -123.5l-25 96q89 84 176.5 118t185.5 34q164 0 257.5 -95.5t93.5 -250.5q0 -93 -64 -211t-217 -297q-45 -53 -193 -225.5t-214 -249.5h307q300 0 418 8
z" />
    <glyph glyph-name="three" unicode="3" 
d="M883 391q0 -186 -125.5 -300t-343.5 -114q-72 0 -172.5 32.5t-155.5 74.5l35 88q73 -57 157.5 -86t161.5 -29q168 0 261.5 84.5t93.5 225.5q0 341 -539 307l4 86q238 -12 361.5 67t123.5 234q0 55 -16 102.5t-48.5 86t-89 61t-132.5 22.5q-78 0 -150 -34.5t-125 -84.5
l-28 84q158 111 325 111q89 0 158 -28t110 -75t61.5 -102.5t20.5 -116.5q0 -127 -69.5 -224t-212.5 -138q149 -13 241.5 -106t92.5 -228z" />
    <glyph glyph-name="four" unicode="4" 
d="M903 489l-20 -71h-125q0 -68 2 -205t2 -213h-94q4 139 4 418h-635l-10 28q360 512 669 977h62v-934h145zM676 1268h-4q-26 -53 -66 -113l-450 -666h516v639q0 58 4 140z" />
    <glyph glyph-name="five" unicode="5" 
d="M895 416q0 -91 -29.5 -169.5t-86 -139t-147 -95.5t-204.5 -35q-78 0 -159.5 25t-141.5 61l14 103q66 -56 152 -83.5t164 -27.5q158 0 255 94t97 254q0 260 -242 326q-65 18 -171 18t-212 -8q4 92 16.5 324.5t14.5 322.5h623v-75h-545l-23 -490q166 10 297 -12
q155 -26 241.5 -128.5t86.5 -264.5z" />
    <glyph glyph-name="six" unicode="6" 
d="M932 428q0 -206 -117 -328.5t-321 -122.5q-167 0 -284.5 148.5t-117.5 406.5q0 210 87.5 391t217.5 291q182 154 432 222l50 -68q-131 -35 -224.5 -77.5t-191.5 -123.5q-88 -73 -161.5 -188t-98.5 -240q94 49 167 74t150 25q182 0 297 -107t115 -303zM850 406
q0 179 -90 264.5t-250 85.5q-140 0 -322 -105q-8 -55 -8 -131q0 -216 95.5 -341.5t246.5 -125.5q145 0 236.5 100.5t91.5 252.5z" />
    <glyph glyph-name="seven" unicode="7" 
d="M946 1374l-584 -1374h-96l563 1307h-387q-260 0 -376 -7l8 86h868z" />
    <glyph glyph-name="eight" unicode="8" 
d="M932 350q0 -177 -118 -275t-325 -98q-75 0 -144 22.5t-124.5 64.5t-89 110t-33.5 152q0 136 77.5 230t250.5 173q-135 79 -194.5 161t-59.5 185q0 152 104.5 243t272.5 91q144 0 241 -84.5t97 -230.5q0 -109 -69 -198.5t-216 -164.5q330 -136 330 -381zM803 1075
q0 122 -73.5 190t-194.5 68q-126 0 -202.5 -68.5t-76.5 -185.5q0 -99 66 -172.5t204 -134.5q136 55 206.5 133t70.5 170zM848 326q0 120 -74.5 203t-265.5 155q-179 -66 -250.5 -150t-71.5 -198q0 -131 91 -206t239 -75q156 0 244 74t88 197z" />
    <glyph glyph-name="nine" unicode="9" 
d="M922 877q0 -195 -83 -390t-214 -313q-188 -169 -408 -227l-59 67q117 33 205.5 75.5t179.5 115.5q85 69 161 195t111 274q-155 -96 -311 -96q-77 0 -147 26.5t-125.5 76.5t-88 128t-32.5 174q0 197 117.5 311.5t291.5 114.5q187 0 294.5 -136.5t107.5 -395.5zM838 905
q0 203 -88 315.5t-238 112.5q-141 0 -229 -91.5t-88 -237.5q0 -171 94 -258t241 -87q78 0 145.5 23t151.5 72q11 107 11 151z" />
    <glyph glyph-name="colon" unicode=":" horiz-adv-x="409" 
d="M283 918q0 -35 -21.5 -55.5t-52.5 -20.5q-34 0 -57 21t-23 52q0 34 22.5 57t57.5 23q34 0 54 -20.5t20 -56.5zM283 63q0 -35 -21.5 -56t-52.5 -21q-34 0 -57 22t-23 53q0 34 22.5 57t57.5 23q34 0 54 -21t20 -57z" />
    <glyph glyph-name="semicolon" unicode=";" horiz-adv-x="409" 
d="M287 918q0 -33 -20.5 -54.5t-53.5 -21.5q-32 0 -56 21t-24 52q0 34 23 57t57 23q35 0 54.5 -21.5t19.5 -55.5zM256 88q0 -78 -22.5 -170t-59.5 -156l-55 17q39 91 39 209q0 74 -21 145l115 17q4 -40 4 -62z" />
    <glyph glyph-name="less" unicode="&#x3c;" 
d="M850 240l-33 -70l-676 383v39l668 389l37 -72l-580 -334z" />
    <glyph glyph-name="equal" unicode="=" 
d="M911 684h-788v84h788v-84zM911 365h-788v79h788v-79z" />
    <glyph glyph-name="greater" unicode="&#x3e;" 
d="M881 557l-674 -393l-37 69l586 342l-582 328l35 72l672 -381v-37z" />
    <glyph glyph-name="question" unicode="?" horiz-adv-x="819" 
d="M731 1143q0 -101 -46.5 -183t-131.5 -165q-110 -108 -149 -178.5t-39 -145.5q0 -118 51 -199l-86 -20q-56 95 -56 207q0 103 47.5 182.5t153.5 185.5q41 41 64.5 67t50.5 65t39 79t12 86q0 58 -21.5 102t-57.5 68.5t-77.5 36.5t-87.5 12q-151 0 -274 -147l-27 94
q129 135 324 135q134 0 222.5 -79t88.5 -203zM455 57q0 -35 -21.5 -56t-52.5 -21q-34 0 -56 21t-22 52q0 35 21.5 58.5t56.5 23.5q34 0 54 -21t20 -57z" />
    <glyph glyph-name="at" unicode="@" horiz-adv-x="1761" 
d="M1653 633q0 -111 -22.5 -205t-59.5 -158.5t-85.5 -110t-100.5 -66.5t-105 -21q-207 0 -207 258q0 61 2 86q-76 -179 -160.5 -261.5t-197.5 -82.5q-101 0 -162 90t-61 252q0 267 137.5 429.5t363.5 162.5q101 0 205 -19q-20 -123 -33.5 -308.5t-13.5 -307.5q0 -43 2 -71
t9.5 -58.5t21 -48.5t38.5 -29.5t60 -11.5q118 0 203.5 126t85.5 332q0 197 -76 348.5t-225.5 238.5t-353.5 87q-219 0 -384.5 -101.5t-251 -273.5t-85.5 -387q0 -179 51.5 -316.5t144.5 -222.5t215.5 -128t270.5 -43q72 0 159.5 20.5t141.5 54.5l8 -94q-155 -67 -324 -67
q-167 0 -307.5 56t-238.5 157t-152.5 246t-54.5 317q0 192 59.5 352.5t167 273t264 174.5t344.5 62q149 0 278.5 -52t224.5 -145.5t149.5 -231.5t54.5 -302zM1110 922q-86 14 -147 14q-115 0 -204.5 -72t-135 -183.5t-45.5 -238.5q0 -288 157 -288q93 0 166.5 80t171.5 288
q4 71 18 205t19 195z" />
    <glyph glyph-name="A" unicode="A" horiz-adv-x="1175" 
d="M1167 0h-110q-24 64 -189 492h-567q-95 -243 -190 -492h-107q132 309 258 633q237 611 287 762h67q18 -53 55.5 -148.5t111 -280t132.5 -335.5q143 -369 252 -631zM831 580l-227 594q-16 40 -20 86h-4q-3 -42 -21 -86l-225 -594h497z" />
    <glyph glyph-name="B" unicode="B" horiz-adv-x="1099" 
d="M993 401q0 -189 -122.5 -297t-338.5 -108q-69 0 -179.5 2t-145.5 2q8 188 8 559v293q0 387 -6 534q31 0 154 2.5t176 2.5q182 0 279 -89t97 -235q0 -110 -59 -199.5t-166 -128.5q150 -21 226.5 -114.5t76.5 -223.5zM819 1057q0 115 -74.5 183.5t-230.5 68.5
q-143 0 -209 -2v-539h195q67 0 123 16t100.5 49.5t70 90.5t25.5 133zM895 389q0 142 -89 218.5t-271 76.5h-230v-596q80 -6 209 -6q183 0 282 71.5t99 235.5z" />
    <glyph glyph-name="C" unicode="C" horiz-adv-x="1253" 
d="M1178 1329l-17 -100q-167 98 -373 98q-126 0 -234 -44t-188 -125.5t-125.5 -206t-45.5 -277.5q0 -137 43 -252.5t117 -193.5t176 -121.5t219 -43.5q124 0 215 23.5t186 91.5l12 -94q-93 -58 -192 -82.5t-228 -24.5q-133 0 -250.5 48t-205.5 135.5t-139.5 219.5t-51.5 290
q0 172 55.5 313t151.5 233.5t224.5 142.5t275.5 50q208 0 375 -80z" />
    <glyph glyph-name="D" unicode="D" horiz-adv-x="1427" 
d="M1331 711q0 -212 -91 -373t-263 -250.5t-402 -89.5q-47 0 -186.5 1t-183.5 1q6 240 6 516v348q0 240 -6 522q29 0 175 3.5t210 3.5q369 0 555 -165t186 -517zM1237 713q0 310 -169.5 453t-489.5 143q-197 0 -273 -2v-1225h266q315 0 490.5 172t175.5 459z" />
    <glyph glyph-name="E" unicode="E" horiz-adv-x="968" 
d="M909 92l-6 -92h-698q10 139 10 522v363q0 353 -8 501h661l6 -90q-287 7 -354 7h-215v-558h230q155 0 299 5l-5 -95q-47 0 -142.5 1t-147.5 1h-234v-573h250q77 0 143.5 1.5t127 3.5t83.5 3z" />
    <glyph glyph-name="F" unicode="F" horiz-adv-x="954" 
d="M877 1298q-313 5 -365 5h-207v-576h205q206 0 326 8l-7 -96q-126 4 -317 4h-207v-248q0 -243 4 -395h-102q8 192 8 514v383q0 225 -6 489h665z" />
    <glyph glyph-name="G" unicode="G" horiz-adv-x="1343" 
d="M1196 1309l-27 -95q-83 57 -176 85t-225 28q-91 0 -175.5 -26.5t-156.5 -80t-126 -127.5t-84.5 -176t-30.5 -219q0 -147 44 -267.5t121.5 -199.5t183 -122t228.5 -43q182 0 324 71v471h-336v92h432v-612q-192 -111 -432 -111q-138 0 -259 49.5t-211 139.5t-142 225.5
t-52 298.5q0 142 39.5 261.5t106 202.5t155.5 141.5t187.5 86t201.5 27.5q231 0 410 -100z" />
    <glyph glyph-name="H" unicode="H" horiz-adv-x="1456" 
d="M1247 0h-100q0 20 2 164t2 299v203h-844v-187q0 -405 2 -479h-104q6 270 6 467v481q0 149 -1 285t-1 153h102q-4 -136 -4 -428v-208h844v178q0 310 -4 458h100q-4 -132 -4 -477v-458q0 -259 4 -451z" />
    <glyph glyph-name="I" unicode="I" horiz-adv-x="524" 
d="M313 0h-104q6 288 6 535v372q0 354 -8 479h106q-4 -192 -4 -473v-376q0 -443 4 -537z" />
    <glyph glyph-name="J" unicode="J" horiz-adv-x="520" 
d="M311 1386q-2 -80 -2 -331v-860q0 -490 -358 -490q-60 0 -111 19v88q54 -23 119 -23q62 0 108.5 21.5t74.5 57.5t45.5 90.5t23.5 112t6 130.5v858q0 171 -4 327h98z" />
    <glyph glyph-name="K" unicode="K" horiz-adv-x="1116" 
d="M1104 0h-152l-602 637q-33 33 -49 53v-61v-629h-96q2 100 2 569v209q0 564 -2 608h96v-600v-63q19 24 41 49l578 614h131q-181 -175 -650 -665q266 -287 703 -721z" />
    <glyph glyph-name="L" unicode="L" horiz-adv-x="915" 
d="M915 98l-12 -98h-696q8 184 8 477v459q0 123 -6 450h106q-6 -205 -6 -405v-893h223q246 0 383 10z" />
    <glyph glyph-name="M" unicode="M" horiz-adv-x="1785" 
d="M1602 0h-99l-37 1108q0 74 11 145h-7q-14 -79 -38 -133l-517 -1128h-20l-514 1112q-10 20 -24.5 66t-18.5 73h-4q10 -102 8 -156l-49 -1087h-96q25 331 41 678q27 566 32 725h72l535 -1151q17 -38 28 -88h4q5 20 37 92l524 1143h74q0 -46 27 -719q19 -450 31 -680z" />
    <glyph glyph-name="N" unicode="N" horiz-adv-x="1476" 
d="M1284 -18h-43l-909 1171q-24 31 -41 82h-4q10 -50 10 -96v-1139h-92q0 43 1 225.5t1 306.5v340q0 480 -2 531h49l891 -1155q7 -9 17 -25.5t21.5 -37t14.5 -25.5h4q-10 42 -10 112v1114h92q-2 -102 -2 -505v-336q0 -469 2 -563z" />
    <glyph glyph-name="O" unicode="O" horiz-adv-x="1492" 
d="M1395 713q0 -342 -179 -539t-481 -197q-185 0 -330.5 88.5t-226 247.5t-80.5 361q0 338 183 536.5t485 198.5q281 0 455 -192t174 -504zM1305 686q0 296 -152.5 466.5t-402.5 170.5q-248 0 -401.5 -168.5t-153.5 -458.5q0 -281 151 -457t397 -176q119 0 221 41.5t178 119
t119.5 196.5t43.5 266z" />
    <glyph glyph-name="P" unicode="P" horiz-adv-x="1036" 
d="M965 1014q0 -81 -27 -154t-81 -134t-146 -96.5t-211 -35.5h-195q0 -386 6 -594h-104q8 416 8 477v465q0 98 -3 247t-3 197q27 0 141.5 3.5t179.5 3.5q70 0 130 -10t117.5 -37t98 -68.5t65 -109t24.5 -154.5zM874 1004q0 307 -362 307q-162 0 -207 -4v-631h187
q196 0 289 89t93 239z" />
    <glyph glyph-name="Q" unicode="Q" horiz-adv-x="1472" 
d="M1395 700q0 -177 -60 -326t-179.5 -251t-281.5 -131q2 -2 102.5 -93t173.5 -150t140 -103q-28 -5 -50 -11.5t-45.5 -14t-35.5 -11.5q-81 71 -206 188t-193 185q-153 0 -279 54t-209.5 148.5t-128.5 221.5t-45 274q0 331 182.5 530t487.5 199q135 0 250 -49t198.5 -138.5
t131 -224t47.5 -297.5zM1303 694q0 290 -149 460.5t-398 170.5q-251 0 -406 -171t-155 -468q0 -143 42.5 -260.5t117 -195t175 -120t215.5 -42.5q131 0 237.5 47.5t176 132t107 198.5t37.5 248z" />
    <glyph glyph-name="R" unicode="R" horiz-adv-x="1107" 
d="M1075 0h-129q-51 82 -207.5 325.5t-199.5 311.5h-234q0 -516 6 -637h-104q4 294 4 487v394q0 424 -4 505q219 7 332 7q422 0 422 -353q0 -140 -84.5 -246.5t-231.5 -142.5q287 -449 430 -651zM862 1032q0 281 -336 281q-139 0 -221 -4v-586h240q137 0 227 85t90 224z" />
    <glyph glyph-name="S" unicode="S" horiz-adv-x="937" 
d="M848 338q0 -158 -111 -259.5t-307 -101.5q-87 0 -178 28t-160 75l17 106q138 -127 335 -127q148 0 226 74.5t78 192.5q0 111 -68.5 179.5t-253.5 149.5q-93 41 -155 86.5t-94 96t-44 98t-12 106.5q0 157 111.5 262t299.5 105q169 0 285 -72l-22 -100q-110 88 -287 88
q-118 0 -204.5 -74t-86.5 -192q0 -125 58 -192t237 -144q176 -76 256 -166t80 -219z" />
    <glyph glyph-name="T" unicode="T" horiz-adv-x="995" 
d="M991 1298q-61 2 -284 2h-168v-868q0 -317 4 -432h-109q1 37 3 120.5t3.5 164t1.5 153.5v862h-163q-205 0 -275 -2l2 88h985v-88z" />
    <glyph glyph-name="U" unicode="U" horiz-adv-x="1372" 
d="M1188 1386q-2 -76 -2 -241v-596q0 -288 -131 -430t-379 -142q-231 0 -360.5 136t-129.5 411v584q0 138 -4 278h109q-4 -132 -4 -260v-585q0 -239 104.5 -358.5t300.5 -119.5q87 0 156 24.5t123.5 77t84 142.5t29.5 213v615q0 125 -4 251h107z" />
    <glyph glyph-name="V" unicode="V" horiz-adv-x="1183" 
d="M1171 1386q-204 -499 -243 -598q-89 -222 -190.5 -475t-131.5 -329h-53q-31 83 -297 764q-39 102 -97 250t-95.5 244t-55.5 144h109l440 -1146q20 -52 27 -117h4q8 69 28 119l449 1144h106z" />
    <glyph glyph-name="W" unicode="W" horiz-adv-x="1832" 
d="M1808 1386q-26 -83 -198 -669q-202 -687 -217 -742h-82l-359 1141q-19 65 -22 135h-4q-8 -81 -25 -135l-383 -1141h-69q-19 69 -46.5 159t-78.5 255.5t-103 339.5q-65 218 -127 417t-74 240h101l344 -1148q19 -68 22 -134h5q0 54 26 134l385 1148h62l362 -1161
q17 -56 23 -121h4q6 70 22 127l334 1155h98z" />
    <glyph glyph-name="X" unicode="X" horiz-adv-x="1110" 
d="M1102 1386q-265 -370 -479 -679q60 -94 230 -352.5t232 -354.5h-118l-375 580q-7 10 -16.5 26.5t-12.5 22.5q-8 -13 -17 -26t-14 -21l-405 -582h-119q48 65 218.5 304t283.5 392q-70 107 -169.5 259.5t-165.5 253t-118 177.5h119l361 -559q6 -10 14.5 -27t17.5 -30
q14 22 37 57l383 559h113z" />
    <glyph glyph-name="Y" unicode="Y" horiz-adv-x="1050" 
d="M1042 1386q-133 -239 -237 -432q-25 -47 -110 -201.5t-124 -230.5v-168q0 -250 4 -354h-102q2 66 2 342v174q-37 72 -119.5 228t-117.5 223q-70 135 -228 419h113l364 -708q9 -18 21.5 -46.5t13.5 -31.5h2q26 60 35 78l377 708h106z" />
    <glyph glyph-name="Z" unicode="Z" horiz-adv-x="1091" 
d="M1075 1372l-913 -1288h383q385 0 510 8l-6 -92h-1031l-10 18l905 1282h-348q-305 0 -477 -4l8 90h967z" />
    <glyph glyph-name="bracketleft" unicode="[" horiz-adv-x="487" 
d="M426 -401h-303v1972h303v-80h-219v-1815h219v-77z" />
    <glyph glyph-name="backslash" unicode="\" horiz-adv-x="716" 
d="M766 -203l-86 -2l-688 1651l88 2z" />
    <glyph glyph-name="bracketright" unicode="]" horiz-adv-x="487" 
d="M365 -401h-304v77h218v1815h-218v80h304v-1972z" />
    <glyph glyph-name="asciicircum" unicode="^" 
d="M883 850l-80 -25l-277 482l-295 -482l-79 27l354 567h37z" />
    <glyph glyph-name="underscore" unicode="_" horiz-adv-x="821" 
d="M823 -252h-823v70h821z" />
    <glyph glyph-name="grave" unicode="`" horiz-adv-x="448" 
d="M406 1094l-72 -27l-311 248l92 41z" />
    <glyph glyph-name="a" unicode="a" horiz-adv-x="940" 
d="M901 10q-1 -1 -9.5 -5.5t-9.5 -5t-8.5 -4.5t-9.5 -4.5t-9 -3.5t-10 -3.5t-9.5 -2.5t-11 -2.5t-11 -1t-12.5 -0.5q-61 0 -103.5 38t-42.5 130q-77 -89 -148.5 -128.5t-162.5 -39.5q-119 0 -187.5 69t-68.5 183q0 212 248 291q48 14 152 34t167 28v104q0 116 -46.5 171.5
t-151.5 55.5q-73 0 -150 -33t-133 -100l-22 94q138 119 319 119q134 0 204 -74.5t70 -216.5v-550q0 -53 20 -75t60 -22q29 0 70 29zM655 242v264q-173 -18 -305 -60q-98 -33 -135 -83t-37 -121q0 -88 49.5 -136.5t137.5 -48.5q151 0 290 185z" />
    <glyph glyph-name="b" unicode="b" horiz-adv-x="1110" 
d="M1014 522q0 -246 -130.5 -395.5t-334.5 -149.5q-88 0 -156 23.5t-137 79.5l-27 -80h-55q4 50 4 510v551q0 111 -6 405l96 4q-2 -51 -2 -340v-309q72 82 158.5 127t206.5 45q172 0 277.5 -124t105.5 -347zM922 516q0 188 -82.5 293.5t-231.5 105.5q-99 0 -182 -47
t-160 -149v-535q110 -131 283 -131q170 0 271.5 124t101.5 339z" />
    <glyph glyph-name="c" unicode="c" horiz-adv-x="909" 
d="M870 915l-34 -96q-103 92 -271 92q-170 0 -274.5 -120.5t-104.5 -311.5q0 -104 30 -186t82.5 -132t119.5 -76t145 -26q140 0 256 88l21 -86q-58 -39 -136 -61.5t-159 -22.5q-205 0 -328 134t-123 348q0 249 136.5 391.5t367.5 142.5q153 0 272 -78z" />
    <glyph glyph-name="d" unicode="d" horiz-adv-x="1093" 
d="M924 0h-95v92q-139 -115 -294 -115q-111 0 -197 39t-138.5 109t-79 160t-26.5 198q0 141 59.5 257t171.5 184.5t255 68.5q134 0 249 -69q0 489 -4 546l97 7q-4 -180 -4 -676v-402q0 -267 6 -399zM829 182v637q-52 52 -113 72t-151 20q-69 0 -134.5 -26t-121 -75.5
t-89.5 -132t-34 -185.5q0 -206 92.5 -321.5t266.5 -115.5q154 0 284 127z" />
    <glyph glyph-name="e" unicode="e" horiz-adv-x="966" 
d="M895 602q0 -48 -6 -104h-703v-33q0 -203 98.5 -303.5t258.5 -100.5q151 0 276 109l15 -92q-144 -101 -324 -101q-85 0 -159.5 31.5t-133 91t-92 154t-33.5 213.5q0 242 122 384t316 142q169 0 267 -105.5t98 -285.5zM801 606q0 142 -73 227t-210 85q-124 0 -216.5 -89.5
t-111.5 -255.5h607q0 6 2 16.5t2 16.5z" />
    <glyph glyph-name="f" unicode="f" horiz-adv-x="524" 
d="M608 1456l-10 -90q-43 31 -121 31q-90 0 -145.5 -70.5t-55.5 -214.5v-141h263l-13 -78h-250v-893h-96q8 208 8 893h-120l12 78h108v145q0 169 81 267t216 98q71 0 123 -25z" />
    <glyph glyph-name="g" unicode="g" horiz-adv-x="968" 
d="M965 893l-193 -39q55 -81 55 -188q0 -64 -23 -124t-66 -108t-112 -77t-153 -29q-41 0 -86.5 8.5t-64.5 19.5q-125 -75 -125 -151q0 -57 37.5 -82t132.5 -25q18 0 101.5 4t121.5 4q89 0 154.5 -22t102.5 -60t54 -83.5t17 -98.5q0 -62 -30 -123t-86 -111.5t-147.5 -82
t-203.5 -31.5q-192 0 -287.5 79t-95.5 196q0 70 36 130.5t134 131.5q-69 16 -100.5 60.5t-31.5 94.5q0 57 38 106t124 99q-63 39 -100 110.5t-37 149.5q0 145 99 243.5t266 98.5q138 0 223 -71q38 8 246 57v-86zM735 657q0 115 -67 188t-189 73q-115 0 -186.5 -74
t-71.5 -189q0 -108 69 -177.5t189 -69.5q119 0 187.5 70.5t68.5 178.5zM825 -174q0 96 -61 146.5t-207 50.5q-21 0 -103 -5.5t-137 -5.5q-88 -59 -122.5 -111.5t-34.5 -113.5q0 -94 74.5 -153.5t236.5 -59.5q87 0 157.5 24t112 62.5t63 81t21.5 84.5z" />
    <glyph glyph-name="h" unicode="h" horiz-adv-x="1079" 
d="M922 0h-91v545q0 201 -58.5 284.5t-184.5 83.5q-85 0 -161 -47.5t-161 -160.5v-705h-94q6 357 6 459v551q0 290 -6 454l94 6v-659q87 96 171 139t177 43q159 0 232.5 -100t73.5 -297v-260q0 -232 2 -336z" />
    <glyph glyph-name="i" unicode="i" horiz-adv-x="456" 
d="M297 1313q0 -31 -20.5 -50.5t-47.5 -19.5q-29 0 -48 19.5t-19 50.5q0 30 18.5 49.5t48.5 19.5q29 0 48.5 -18.5t19.5 -50.5zM276 0h-92q2 72 2 410v159q0 308 -4 404l94 10q0 -59 -1 -188.5t-1 -225.5v-157q0 -344 2 -412z" />
    <glyph glyph-name="j" unicode="j" horiz-adv-x="462" 
d="M297 1313q0 -31 -20.5 -50.5t-47.5 -19.5q-29 0 -48 19.5t-19 50.5q0 30 18.5 49.5t48.5 19.5q29 0 48.5 -18.5t19.5 -50.5zM276 983q0 -14 -0.5 -106t-1 -226.5t-0.5 -249.5v-452q0 -467 -309 -467q-71 0 -141 31l6 84q30 -19 72 -31t73 -12q45 0 80.5 17t66 58
t47.5 119t17 189v370q0 637 -4 666z" />
    <glyph glyph-name="k" unicode="k" horiz-adv-x="880" 
d="M870 0h-129l-446 457q-20 20 -29 32v-489h-94q6 114 6 453v565q0 119 -4 455l92 4v-977q4 3 14 15.5t17 19.5l446 436h121q-31 -29 -227.5 -215.5t-269.5 -255.5q81 -84 237 -239.5t266 -260.5z" />
    <glyph glyph-name="l" unicode="l" horiz-adv-x="440" 
d="M270 0h-98q6 204 6 522v314q0 338 -4 632l96 2q-4 -340 -4 -624v-322q0 -352 4 -524z" />
    <glyph glyph-name="m" unicode="m" horiz-adv-x="1658" 
d="M1499 0h-94v545q0 144 -23.5 224t-70 111t-127.5 31q-73 0 -153 -54t-152 -152v-705h-91v588q0 177 -53 250t-172 73q-75 0 -153.5 -53.5t-143.5 -152.5v-705h-92q4 192 4 346v244q0 270 -4 385l92 6v-164q151 176 318 176q111 0 177 -48.5t97 -147.5q177 196 344 196
q155 0 223 -94.5t68 -304.5v-272q0 -238 6 -322z" />
    <glyph glyph-name="n" unicode="n" horiz-adv-x="1081" 
d="M922 0h-95q4 106 4 313v230q0 109 -15.5 182t-48 114t-76 57.5t-105.5 16.5q-91 0 -167.5 -51t-152.5 -155v-707h-92q4 166 4 365v243q0 174 -6 365l94 8v-166q86 95 166.5 136.5t177.5 41.5q163 0 236.5 -97.5t73.5 -303.5v-240q0 -294 2 -352z" />
    <glyph glyph-name="o" unicode="o" horiz-adv-x="1126" 
d="M1030 489q0 -234 -135.5 -373t-341.5 -139q-198 0 -326.5 134.5t-128.5 357.5q0 245 136 384.5t350 139.5q201 0 323.5 -134t122.5 -370zM938 483q0 209 -105 320.5t-264 111.5q-75 0 -143.5 -29.5t-121.5 -83.5t-84.5 -137.5t-31.5 -183.5q0 -199 108.5 -310.5
t268.5 -111.5q162 0 267.5 114.5t105.5 309.5z" />
    <glyph glyph-name="p" unicode="p" horiz-adv-x="1099" 
d="M1006 518q0 -129 -38.5 -232.5t-106.5 -170.5t-159 -102.5t-198 -35.5q-50 0 -122 16.5t-116 43.5q0 -484 2 -576l-94 -2q4 266 4 527v663q0 242 -2 324l90 10v-131q71 67 155.5 104t168.5 37q194 0 305 -119.5t111 -355.5zM913 500q0 411 -344 411q-74 0 -153 -37.5
t-150 -117.5v-621q120 -76 254 -76q174 0 283.5 115.5t109.5 325.5z" />
    <glyph glyph-name="q" unicode="q" horiz-adv-x="1105" 
d="M932 981q-6 -123 -6 -322v-393q0 -219 1 -444t1 -361l-99 -6q9 260 9 641q-74 -66 -145 -92.5t-152 -26.5q-194 0 -320.5 127.5t-126.5 356.5q0 103 26 190t72 149.5t109.5 106.5t138.5 65t158 21q126 0 240 -78l8 66h86zM838 195v618q-112 98 -263 98q-77 0 -146 -26.5
t-124 -77.5t-87 -133.5t-32 -186.5q0 -212 103.5 -321t269.5 -109q80 0 146.5 34.5t132.5 103.5z" />
    <glyph glyph-name="r" unicode="r" horiz-adv-x="643" 
d="M635 975l-10 -92q-33 20 -97 20q-165 0 -262 -256v-307q0 -227 4 -340h-96q4 160 4 367v208q0 267 -4 398l92 4v-186q110 200 289 200q40 0 80 -16z" />
    <glyph glyph-name="s" unicode="s" horiz-adv-x="735" 
d="M657 252q0 -117 -87.5 -196t-245.5 -79q-64 0 -134 21.5t-108 44.5l16 100q40 -31 106 -56.5t136 -25.5q109 0 168 46t59 122q0 49 -12 81.5t-45 57.5t-71.5 42t-110.5 41q-68 23 -114.5 52.5t-71.5 65t-35.5 72.5t-10.5 82q0 120 87.5 195t228.5 75q131 0 219 -53
l-27 -90q-92 63 -209 63q-90 0 -149.5 -49.5t-59.5 -130.5q0 -88 51 -132t169 -81q138 -43 194.5 -106.5t56.5 -161.5z" />
    <glyph glyph-name="t" unicode="t" horiz-adv-x="569" 
d="M547 16q-62 -30 -133 -30q-224 0 -224 264v643h-145l23 78h122v200l89 31v-231h247l-14 -78h-233v-635q0 -95 32 -145t119 -50q70 0 117 37v-84z" />
    <glyph glyph-name="u" unicode="u" horiz-adv-x="1062" 
d="M907 0h-96v150q-141 -170 -322 -170q-70 0 -127 21.5t-103.5 67t-72.5 124.5t-26 186v276q0 238 -2 318l94 4q-4 -204 -4 -322v-245q0 -349 262 -349q173 0 301 207v408q0 139 -4 295l100 4q-6 -270 -6 -299v-287q0 -85 3 -223t3 -166z" />
    <glyph glyph-name="v" unicode="v" horiz-adv-x="886" 
d="M870 971q-166 -390 -196 -467q-18 -46 -65.5 -161t-80 -197t-59.5 -158h-74q-17 45 -87.5 240t-110.5 298q-81 210 -177 445h107l287 -785q19 -60 22 -100h6q4 48 25 107l299 778h104z" />
    <glyph glyph-name="w" unicode="w" horiz-adv-x="1400" 
d="M1376 971q-18 -47 -36.5 -105.5t-50.5 -166t-58 -189.5q-120 -387 -156 -522h-104l-238 768q-14 44 -18 90h-4q-2 -23 -21 -88l-260 -770h-92q-14 45 -66 208t-106 336q-120 387 -141 439h102l242 -813q8 -28 16 -92h4q6 45 21 96l272 809h66l260 -815q9 -26 14 -93h6
q4 53 16 93l234 815h98z" />
    <glyph glyph-name="x" unicode="x" horiz-adv-x="831" 
d="M809 0h-115l-243 360q-7 11 -17 31t-16 29q-3 -6 -39 -60l-244 -360h-115q160 205 353 473q-134 207 -334 498h111l237 -377q7 -11 20 -29.5t17 -25.5q5 9 16.5 25.5t18.5 27.5l243 379h107q-279 -397 -340 -486q184 -274 340 -485z" />
    <glyph glyph-name="y" unicode="y" horiz-adv-x="897" 
d="M883 971q-237 -564 -316 -768q-224 -576 -278 -740h-111q117 254 221 529q-16 47 -39.5 109t-44.5 115t-59.5 151t-67.5 172q-151 388 -172 432h105l303 -799q11 -33 20 -76h5q21 73 22 76l311 799h101z" />
    <glyph glyph-name="z" unicode="z" horiz-adv-x="831" 
d="M805 954l-647 -878h327q128 0 318 10l-12 -86h-775l-4 14l654 881h-297q-201 0 -281 -2l8 78h705z" />
    <glyph glyph-name="braceleft" unicode="{" horiz-adv-x="575" 
d="M518 1495q-79 -7 -120.5 -40.5t-61 -110.5t-19.5 -220v-204q0 -124 -16.5 -198.5t-49 -109.5t-87.5 -47q59 -12 90 -44t47 -107t16 -211v-185q0 -189 38.5 -264t148.5 -82l-10 -73q-69 2 -117 23.5t-76.5 55t-44 90t-20.5 114.5t-5 143v180q0 127 -17 196.5t-51 96
t-95 26.5v78q96 0 129.5 65.5t33.5 245.5v222q0 125 16 207t52.5 130.5t85 70t123.5 28.5z" />
    <glyph glyph-name="bar" unicode="|" horiz-adv-x="329" 
d="M207 -524h-84v2244h84v-2244z" />
    <glyph glyph-name="braceright" unicode="}" horiz-adv-x="575" 
d="M508 524q-61 0 -95.5 -26.5t-52.5 -96.5t-18 -196v-180q0 -86 -4.5 -143t-20 -114t-43.5 -90.5t-75.5 -55t-116.5 -23.5l-12 73q110 7 148 82t38 264v185q0 136 16.5 211.5t48.5 107t91 43.5q-83 18 -119.5 96t-36.5 259v204q0 143 -19 220t-60 110.5t-120 40.5l11 76
q75 -7 123 -28.5t84 -70t51.5 -130.5t15.5 -207v-222q0 -179 35 -245t131 -66v-78z" />
    <glyph glyph-name="asciitilde" unicode="~" 
d="M930 659q-42 -120 -103 -166.5t-147 -46.5q-42 0 -79 17t-65 41t-54.5 48t-59.5 41t-68 17q-122 0 -182 -161l-68 38q44 97 106.5 149t154.5 52q45 0 83.5 -17.5t66 -43t53.5 -51t57 -43t65 -17.5q65 0 103 42.5t67 127.5z" />
    <glyph glyph-name="uni00A0" unicode="&#xa0;" horiz-adv-x="499" 
 />
    <glyph glyph-name="exclamdown" unicode="&#xa1;" horiz-adv-x="634" 
d="M393 948q0 -35 -22.5 -55.5t-53.5 -20.5q-33 0 -54 21.5t-21 52.5q0 35 20.5 58.5t54.5 23.5t55 -22t21 -58zM373 -377h-105l17 1071h71z" />
    <glyph glyph-name="cent" unicode="&#xa2;" 
d="M883 1118l-25 -96q-64 52 -119 69t-157 17q-163 0 -262 -114.5t-99 -313.5q0 -197 104 -301.5t263 -104.5q160 0 282 95v-95q-126 -70 -268 -75v-213l-86 -4l4 219q-176 27 -283.5 150t-107.5 321q0 208 109 344.5t311 163.5l4 213l78 4l-4 -217q158 -3 256 -62z" />
    <glyph glyph-name="sterling" unicode="&#xa3;" 
d="M965 92l-11 -88q-86 -7 -174.5 -7t-195.5 3.5t-170 3.5q-187 0 -287 -22l-21 57q116 61 176 163t60 232q0 69 -12 191h-209l10 69h193q-23 216 -23 291q0 173 99 276t262 103q110 0 210 -51l-26 -82q-82 59 -201 59q-122 0 -190 -82.5t-68 -230.5q0 -67 23 -283h389
l-15 -69h-368q10 -95 10 -174q0 -246 -160 -379q49 3 131 3t170.5 -1.5t106.5 -1.5q211 0 291 20z" />
    <glyph glyph-name="currency" unicode="&#xa4;" horiz-adv-x="1214" 
d="M1042 354q-9 -9 -27.5 -28.5t-27.5 -28.5l-135 135q-105 -88 -242 -88q-140 0 -241 88q-22 -22 -67.5 -67t-68.5 -68q-9 9 -27.5 28.5t-27.5 28.5q23 21 69 65t68 66q-86 108 -86 240q0 147 86 240l-69 66t-68 67q9 9 27.5 28.5t27.5 28.5q23 -23 68.5 -68t67.5 -67
q109 86 241 86q60 0 126.5 -22.5t113.5 -63.5q22 22 68 67t69 68q9 -9 27.5 -28.5t27.5 -28.5q-22 -23 -68 -67l-69 -66q84 -100 84 -240q0 -136 -84 -240q22 -21 68.5 -65.5t68.5 -65.5zM911 727q0 130 -90.5 215.5t-208.5 85.5q-130 0 -217.5 -89.5t-87.5 -211.5
q0 -124 89.5 -214.5t213.5 -90.5t212.5 90t88.5 215z" />
    <glyph glyph-name="yen" unicode="&#xa5;" 
d="M938 1386q-24 -43 -104.5 -189.5t-140 -256t-97.5 -184.5h256v-72h-297v-221h297v-76h-297q0 -278 4 -387h-96q6 258 6 387h-303v76h303v221h-303v72h264q-120 235 -332 630h101l286 -573q21 -47 29 -74q7 23 31 72l301 575h92z" />
    <glyph glyph-name="brokenbar" unicode="&#xa6;" horiz-adv-x="329" 
d="M207 729h-84v991h84v-991zM207 -524h-84v1056h84v-1056z" />
    <glyph glyph-name="section" unicode="&#xa7;" horiz-adv-x="823" 
d="M737 514q0 -176 -164 -295q47 -30 72 -87.5t25 -115.5q0 -136 -92 -217.5t-246 -81.5q-131 0 -242 62l14 92q53 -38 117.5 -58t120.5 -20q108 0 173 55.5t65 139.5q0 82 -31 126t-105 83q-71 37 -110 53q-130 58 -192 130.5t-62 174.5q0 91 41 158.5t125 126.5
q-64 39 -95.5 101.5t-31.5 119.5q0 132 90.5 214.5t228.5 82.5q139 0 236 -51l-25 -82q-94 59 -217 59q-102 0 -163.5 -57.5t-61.5 -153.5q0 -47 13.5 -79.5t52 -63.5t90.5 -57.5t147 -67.5q227 -99 227 -291zM651 504q0 97 -70 157t-264 138q-68 -32 -109.5 -90.5
t-41.5 -141.5q0 -46 13 -82t35 -63.5t67.5 -55t94.5 -50.5t132 -56q70 34 106.5 99t36.5 145z" />
    <glyph glyph-name="dieresis" unicode="&#xa8;" horiz-adv-x="716" 
d="M602 1235q0 -32 -21 -51t-49 -19q-31 0 -50 21t-19 49q0 33 18 53.5t51 20.5q32 0 51 -20t19 -54zM244 1239q0 -32 -20 -50t-48 -18q-31 0 -50.5 19.5t-19.5 46.5q0 33 18.5 53.5t51.5 20.5q32 0 50 -19t18 -53z" />
    <glyph glyph-name="copyright" unicode="&#xa9;" horiz-adv-x="1536" 
d="M1456 694q0 -198 -89.5 -358t-247.5 -251t-353 -91q-198 0 -356 87.5t-248 246t-90 360.5q0 146 52.5 276.5t144 225.5t221.5 150t278 55q141 0 267 -50.5t219 -140.5t147.5 -222.5t54.5 -287.5zM1378 692q0 181 -83 327t-223 226t-308 80q-179 0 -320 -84t-217.5 -228
t-76.5 -321q0 -138 48.5 -257t131 -201t195.5 -128.5t239 -46.5q167 0 307 80t223.5 226t83.5 327zM1057 1094l-25 -93q-93 66 -246 66q-157 0 -252.5 -102.5t-95.5 -286.5q0 -163 96 -264t246 -101q146 0 250 68l10 -84q-126 -68 -274 -68q-83 0 -158 29t-134 83.5
t-93.5 140.5t-34.5 192q0 221 130 349t325 128q136 0 256 -57z" />
    <glyph glyph-name="ordfeminine" unicode="&#xaa;" horiz-adv-x="626" 
d="M594 848l-6 -68q-20 -10 -66 -10q-33 0 -62.5 27.5t-33.5 70.5q-87 -100 -190 -100q-74 0 -121 47t-47 115q0 75 46.5 123.5t123.5 66.5q32 7 93 13.5t85 9.5q2 57 -6 93t-26.5 52.5t-37.5 21.5t-49 5q-39 0 -85.5 -20t-84.5 -58l-23 70q112 79 209 79q179 0 179 -186
q0 -25 -2.5 -107t-2.5 -135q0 -82 28.5 -107t78.5 -3zM418 1081q-82 -1 -137 -12t-84 -30.5t-40.5 -43t-11.5 -55.5q0 -50 31.5 -78t83.5 -28q57 0 105 44t51 107q2 25 2 96z" />
    <glyph glyph-name="guillemotleft" unicode="&#xab;" horiz-adv-x="733" 
d="M668 307l-76 -51l-234 256l246 252l64 -47l-203 -205zM369 317l-72 -49l-234 250l244 256l62 -47l-199 -209z" />
    <glyph glyph-name="logicalnot" unicode="&#xac;" 
d="M911 254h-82v281h-706v81h788v-362z" />
    <glyph glyph-name="uni00AD" unicode="&#xad;" horiz-adv-x="765" 
d="M629 520h-492v84h492v-84z" />
    <glyph glyph-name="registered" unicode="&#xae;" horiz-adv-x="1052" 
d="M944 971q0 -175 -123.5 -299.5t-298.5 -124.5t-298.5 124.5t-123.5 299.5t123.5 298.5t298.5 123.5t298.5 -123.5t123.5 -298.5zM879 971q0 148 -104.5 253t-252.5 105t-252 -105t-104 -253t104.5 -254.5t251.5 -106.5t252 106.5t105 254.5zM717 727h-84l-121 209h-78
v-209h-63v498q90 4 135 4q178 0 178 -135q0 -49 -30.5 -89t-78.5 -55zM618 1087q0 45 -26 64.5t-90 19.5h-68v-182q11 0 44 -1t38 -1q50 0 76 28.5t26 71.5z" />
    <glyph glyph-name="macron" unicode="&#xaf;" horiz-adv-x="514" 
d="M444 1161h-383v80h383v-80z" />
    <glyph glyph-name="degree" unicode="&#xb0;" horiz-adv-x="720" 
d="M635 1174q0 -114 -80.5 -193.5t-194.5 -79.5t-194 79.5t-80 193.5t80 194t194 80t194.5 -80t80.5 -194zM563 1174q0 84 -59 142t-144 58q-84 0 -142 -58t-58 -142q0 -83 58.5 -142t141.5 -59q85 0 144 59t59 142z" />
    <glyph glyph-name="plusminus" unicode="&#xb1;" 
d="M909 680h-350v-352h-86v352h-350v86h350v350h86v-350h350v-86zM911 92h-788v82h788v-82z" />
    <glyph glyph-name="twosuperior" unicode="&#xb2;" horiz-adv-x="649" 
d="M539 748l-4 -78h-429l-12 49q152 152 228 246q69 86 94.5 136.5t25.5 90.5q0 60 -37.5 96.5t-97.5 36.5q-45 0 -88 -25.5t-76 -74.5l-14 82q93 86 193 86q85 0 138.5 -54t53.5 -133q0 -109 -127 -260q-26 -30 -86.5 -98.5t-91.5 -104.5h135q118 0 195 5z" />
    <glyph glyph-name="threesuperior" unicode="&#xb3;" horiz-adv-x="602" 
d="M500 877q0 -90 -65 -154t-183 -64q-35 0 -86.5 18t-79.5 40l20 76q80 -64 160 -64q68 0 112 37t44 92q0 83 -56 116.5t-194 29.5l2 73q116 -6 170.5 28t54.5 112q0 45 -37 76.5t-90 31.5q-68 0 -137 -65l-14 73q79 60 164 60t137.5 -50.5t52.5 -119.5q0 -61 -32.5 -114
t-98.5 -65q72 -4 114 -52t42 -115z" />
    <glyph glyph-name="acute" unicode="&#xb4;" horiz-adv-x="460" 
d="M426 1303l-315 -238l-76 31l301 254z" />
    <glyph glyph-name="mu" unicode="&#xb5;" horiz-adv-x="1062" 
d="M893 0l-90 -2v152q-76 -91 -147.5 -129.5t-157.5 -38.5q-104 0 -166.5 48t-87.5 120l2 -404h-90q4 92 4 324v575q0 236 -4 330l94 6q-2 -102 -2 -336v-235q0 -173 75 -260t189 -87q82 0 152.5 47.5t138.5 157.5v361q0 41 -1 98t-2.5 132t-2.5 114l96 4q-6 -270 -6 -348
v-285q0 -50 3 -170t3 -174z" />
    <glyph glyph-name="paragraph" unicode="&#xb6;" horiz-adv-x="950" 
d="M874 1303h-139v-1491h-82v1491h-262v-1491h-82v1095q-101 0 -164 65.5t-63 172.5q0 103 62.5 167t152.5 64h577v-73z" />
    <glyph glyph-name="periodcentered" unicode="&#xb7;" horiz-adv-x="409" 
d="M276 500q0 -32 -20 -52t-49 -20q-32 0 -53 20t-21 50q0 32 20.5 52.5t53.5 20.5q69 0 69 -71z" />
    <glyph glyph-name="cedilla" unicode="&#xb8;" horiz-adv-x="399" 
d="M322 -250q0 -73 -66.5 -127.5t-177.5 -48.5l-4 70q72 -9 121 21.5t49 74.5q0 101 -138 90l23 190l70 -6l-11 -123q57 0 95.5 -38.5t38.5 -102.5z" />
    <glyph glyph-name="onesuperior" unicode="&#xb9;" horiz-adv-x="624" 
d="M383 672h-78v635l-168 -43v71l246 58v-721z" />
    <glyph glyph-name="ordmasculine" unicode="&#xba;" horiz-adv-x="688" 
d="M635 1083q0 -141 -83 -228t-212 -87q-126 0 -207.5 79.5t-81.5 217.5q0 148 83 236t216 88q128 0 206.5 -81t78.5 -225zM557 1077q0 118 -61.5 181t-155.5 63q-93 0 -152 -66t-59 -180q0 -113 59.5 -176t153.5 -63q98 0 156.5 64.5t58.5 176.5z" />
    <glyph glyph-name="guillemotright" unicode="&#xbb;" horiz-adv-x="733" 
d="M672 514l-242 -252l-61 47l200 205l-200 205l69 49zM369 520l-244 -252l-66 47l205 205l-205 205l74 49z" />
    <glyph glyph-name="onequarter" unicode="&#xbc;" horiz-adv-x="1169" 
d="M1057 1389l-848 -1387h-84l846 1387h86zM352 672h-78v635l-168 -43v71l246 58v-721zM1083 254l-8 -66h-65v-188h-74v188h-342l-4 39l348 494h72v-467h73zM936 254v354l-240 -354h240z" />
    <glyph glyph-name="onehalf" unicode="&#xbd;" horiz-adv-x="1169" 
d="M352 672h-78v635l-168 -43v71l246 58v-721zM1014 1389l-850 -1387h-84l848 1387h86zM1081 80l-4 -78h-428l-12 49q136 136 225 246q71 87 97 136.5t26 88.5q0 60 -38.5 97.5t-98.5 37.5q-45 0 -88 -25.5t-76 -74.5l-12 82q91 84 192 84q85 0 139 -53.5t54 -132.5
q0 -110 -127 -261q-25 -29 -85.5 -97t-92.5 -105h135q101 0 194 6z" />
    <glyph glyph-name="threequarters" unicode="&#xbe;" horiz-adv-x="1169" 
d="M1120 1386l-850 -1386h-86l850 1386h86zM516 877q0 -90 -65 -154t-183 -64q-35 0 -86.5 18t-79.5 40l19 76q80 -64 162 -64q68 0 110.5 37t42.5 92q0 83 -56 116.5t-194 29.5l2 73q116 -6 171 28t55 112q0 46 -36 77t-89 31q-68 0 -137 -65l-15 73q79 60 162 60
q85 0 139 -50.5t54 -119.5q0 -61 -33 -114t-99 -65q72 -4 114 -52t42 -115zM1104 254l-8 -66h-66v-188h-76v188h-340l-4 39l348 494h72v-467h74zM954 254v354l-237 -354h237z" />
    <glyph glyph-name="questiondown" unicode="&#xbf;" horiz-adv-x="819" 
d="M532 950q0 -35 -20.5 -57.5t-54.5 -22.5t-55 21t-21 57q0 35 22.5 56.5t53.5 21.5q33 0 54 -22t21 -54zM739 -287q-129 -135 -323 -135q-134 0 -223 80.5t-89 204.5q0 101 46.5 181.5t132.5 164.5q110 108 149 179t39 147q0 117 -51 198l86 19q55 -93 55 -207
q0 -103 -47 -181.5t-154 -185.5q-55 -55 -84.5 -90t-55 -91t-25.5 -116q0 -58 21.5 -102t57.5 -68.5t77 -36.5t87 -12q154 0 275 145z" />
    <glyph glyph-name="Agrave" unicode="&#xc0;" horiz-adv-x="1175" 
d="M725 1505l-72 -26l-311 247l92 41zM1167 0h-110q-24 64 -189 492h-567q-95 -243 -190 -492h-107q132 309 258 633q237 611 287 762h67q18 -53 55.5 -148.5t111 -280t132.5 -335.5q143 -369 252 -631zM831 580l-227 594q-16 40 -20 86h-4q-3 -42 -21 -86l-225 -594h497z
" />
    <glyph glyph-name="Aacute" unicode="&#xc1;" horiz-adv-x="1175" 
d="M836 1718l-316 -237l-76 30l301 254zM1167 0h-110q-24 64 -189 492h-567q-95 -243 -190 -492h-107q132 309 258 633q237 611 287 762h67q18 -53 55.5 -148.5t111 -280t132.5 -335.5q143 -369 252 -631zM831 580l-227 594q-16 40 -20 86h-4q-3 -42 -21 -86l-225 -594h497z
" />
    <glyph glyph-name="Acircumflex" unicode="&#xc2;" horiz-adv-x="1175" 
d="M840 1516l-78 -27l-176 188l-183 -198l-67 30l233 250h37zM1167 0h-110q-24 64 -189 492h-567q-95 -243 -190 -492h-107q132 309 258 633q237 611 287 762h67q18 -53 55.5 -148.5t111 -280t132.5 -335.5q143 -369 252 -631zM831 580l-227 594q-16 40 -20 86h-4
q-3 -42 -21 -86l-225 -594h497z" />
    <glyph glyph-name="Atilde" unicode="&#xc3;" horiz-adv-x="1175" 
d="M895 1649q-64 -82 -106.5 -110t-96.5 -28q-35 0 -64 15.5t-47 34t-46.5 34t-61.5 15.5q-65 0 -127 -109l-55 55q58 74 102 105t94 31q42 0 74 -16t48.5 -35.5t42 -35.5t55.5 -16t59 23t65 82zM1167 0h-110q-24 64 -189 492h-567q-95 -243 -190 -492h-107q132 309 258 633
q237 611 287 762h67q18 -53 55.5 -148.5t111 -280t132.5 -335.5q143 -369 252 -631zM831 580l-227 594q-16 40 -20 86h-4q-3 -42 -21 -86l-225 -594h497z" />
    <glyph glyph-name="Adieresis" unicode="&#xc4;" horiz-adv-x="1175" 
d="M831 1571q0 -32 -20 -51t-49 -19q-31 0 -50.5 20.5t-19.5 49.5q0 33 18.5 53.5t51.5 20.5q32 0 50.5 -20t18.5 -54zM473 1575q0 -32 -19 -50t-48 -18q-32 0 -51 19t-19 47q0 33 18.5 53.5t51.5 20.5q32 0 49.5 -19t17.5 -53zM1167 0h-110q-24 64 -189 492h-567
q-95 -243 -190 -492h-107q132 309 258 633q237 611 287 762h67q18 -53 55.5 -148.5t111 -280t132.5 -335.5q143 -369 252 -631zM831 580l-227 594q-16 40 -20 86h-4q-3 -42 -21 -86l-225 -594h497z" />
    <glyph glyph-name="Aring" unicode="&#xc5;" horiz-adv-x="1175" 
d="M743 1569q0 -68 -49 -117t-116 -49q-68 0 -115 46.5t-47 113.5q0 73 47 119.5t119 46.5q71 0 116 -46.5t45 -113.5zM1167 0h-110q-24 64 -189 492h-567q-95 -243 -190 -492h-107q132 309 258 633q237 611 287 762h67q18 -53 55.5 -148.5t111 -280t132.5 -335.5
q143 -369 252 -631zM676 1567q0 41 -28.5 70.5t-69.5 29.5t-68 -28t-27 -70t27.5 -73.5t67.5 -31.5q41 0 69.5 30.5t28.5 72.5zM831 580l-227 594q-16 40 -20 86h-4q-3 -42 -21 -86l-225 -594h497z" />
    <glyph glyph-name="AE" unicode="&#xc6;" horiz-adv-x="1679" 
d="M1620 94l-6 -94h-701q11 172 11 500l-480 2q-128 -201 -317 -502h-135q199 281 428 627q227 344 487 759h668l6 -90q-175 9 -340 9h-225v-560h231q174 0 328 5l-2 -93q-268 9 -326 9h-231v-582h274q218 0 330 10zM926 1266q-39 -77 -47 -88l-379 -590h424v520
q0 111 2 158z" />
    <glyph glyph-name="Ccedilla" unicode="&#xc7;" horiz-adv-x="1253" 
d="M1178 1325l-17 -100q-167 98 -373 98q-126 0 -233.5 -43t-188 -124t-126 -205t-45.5 -277q0 -137 43 -252t117.5 -192.5t176 -120.5t218.5 -43q125 0 215.5 23t185.5 91l12 -94q-92 -57 -190.5 -81.5t-224.5 -24.5l-9 -89q57 0 95 -38.5t38 -102.5q0 -73 -66.5 -127.5
t-176.5 -48.5l-4 70q72 -9 121 21.5t49 74.5q0 101 -138 90l19 154q-122 12 -227.5 64t-184 138t-123.5 210.5t-45 273.5q0 172 55.5 312t151.5 232t224.5 141.5t275.5 49.5q208 0 375 -80z" />
    <glyph glyph-name="Egrave" unicode="&#xc8;" horiz-adv-x="968" 
d="M698 1505l-71 -26l-312 247l93 41zM909 92l-6 -92h-698q10 139 10 522v363q0 353 -8 501h661l6 -90q-287 7 -354 7h-215v-558h230q155 0 299 5l-5 -95q-47 0 -142.5 1t-147.5 1h-234v-573h250q77 0 143.5 1.5t127 3.5t83.5 3z" />
    <glyph glyph-name="Eacute" unicode="&#xc9;" horiz-adv-x="968" 
d="M811 1718l-315 -237l-76 30l301 254zM909 92l-6 -92h-698q10 139 10 522v363q0 353 -8 501h661l6 -90q-287 7 -354 7h-215v-558h230q155 0 299 5l-5 -95q-47 0 -142.5 1t-147.5 1h-234v-573h250q77 0 143.5 1.5t127 3.5t83.5 3z" />
    <glyph glyph-name="Ecircumflex" unicode="&#xca;" horiz-adv-x="968" 
d="M840 1518l-78 -27l-176 188l-183 -198l-67 30l233 250h37zM909 92l-6 -92h-698q10 139 10 522v363q0 353 -8 501h661l6 -90q-287 7 -354 7h-215v-558h230q155 0 299 5l-5 -95q-47 0 -142.5 1t-147.5 1h-234v-573h250q77 0 143.5 1.5t127 3.5t83.5 3z" />
    <glyph glyph-name="Edieresis" unicode="&#xcb;" horiz-adv-x="968" 
d="M819 1573q0 -32 -20 -51t-49 -19q-31 0 -50.5 20.5t-19.5 49.5q0 33 18.5 53.5t51.5 20.5q32 0 50.5 -20t18.5 -54zM461 1577q0 -32 -19.5 -50t-48.5 -18q-31 0 -50 18.5t-19 47.5q0 33 18 53.5t51 20.5q32 0 50 -19t18 -53zM909 92l-6 -92h-698q10 139 10 522v363
q0 353 -8 501h661l6 -90q-287 7 -354 7h-215v-558h230q155 0 299 5l-5 -95q-47 0 -142.5 1t-147.5 1h-234v-573h250q77 0 143.5 1.5t127 3.5t83.5 3z" />
    <glyph glyph-name="Igrave" unicode="&#xcc;" horiz-adv-x="524" 
d="M399 1507l-71 -26l-312 248l93 40zM313 0h-104q6 288 6 535v372q0 354 -8 479h106q-4 -192 -4 -473v-376q0 -443 4 -537z" />
    <glyph glyph-name="Iacute" unicode="&#xcd;" horiz-adv-x="524" 
d="M518 1718l-315 -237l-76 30l301 254zM313 0h-104q6 288 6 535v372q0 354 -8 479h106q-4 -192 -4 -473v-376q0 -443 4 -537z" />
    <glyph glyph-name="Icircumflex" unicode="&#xce;" horiz-adv-x="524" 
d="M522 1518l-78 -27l-176 188l-182 -198l-68 30l234 250h37zM313 0h-104q6 288 6 535v372q0 354 -8 479h106q-4 -192 -4 -473v-376q0 -443 4 -537z" />
    <glyph glyph-name="Idieresis" unicode="&#xcf;" horiz-adv-x="524" 
d="M510 1575q0 -32 -21 -51t-49 -19q-31 0 -50 20.5t-19 49.5q0 34 17.5 54t51.5 20q31 0 50.5 -20.5t19.5 -53.5zM152 1579q0 -32 -20 -50t-48 -18q-32 0 -51 19t-19 47q0 34 18 54t52 20q31 0 49.5 -19.5t18.5 -52.5zM313 0h-104q6 288 6 535v372q0 354 -8 479h106
q-4 -192 -4 -473v-376q0 -443 4 -537z" />
    <glyph glyph-name="Eth" unicode="&#xd0;" horiz-adv-x="1427" 
d="M1331 711q0 -320 -207 -516.5t-549 -196.5q-327 0 -372 2q10 125 10 516v121h-207v84h207v143q0 407 -8 522q71 0 207.5 2.5t156.5 2.5q175 0 312.5 -38.5t239.5 -118.5t156 -212t54 -311zM1237 713q0 295 -175.5 445.5t-483.5 150.5h-273v-588h344v-84h-344v-557h268
q306 0 485 174.5t179 458.5z" />
    <glyph glyph-name="Ntilde" unicode="&#xd1;" horiz-adv-x="1476" 
d="M1087 1653q-63 -83 -105.5 -110t-96.5 -27q-35 0 -65 15.5t-47.5 33.5t-45.5 33.5t-61 15.5q-67 0 -127 -109l-56 56q58 73 102.5 104t94.5 31q41 0 72.5 -16t48 -35.5t42 -35.5t56.5 -16q59 0 125 105zM1284 -18h-43l-909 1171q-24 31 -41 82h-4q10 -50 10 -96v-1139
h-92q0 43 1 225.5t1 306.5v340q0 480 -2 531h49l891 -1155q7 -9 17 -25.5t21.5 -37t14.5 -25.5h4q-10 42 -10 112v1114h92q-2 -102 -2 -505v-336q0 -469 2 -563z" />
    <glyph glyph-name="Ograve" unicode="&#xd2;" horiz-adv-x="1492" 
d="M883 1507l-72 -26l-311 248l92 40zM1395 713q0 -342 -179 -539t-481 -197q-185 0 -330.5 88.5t-226 247.5t-80.5 361q0 338 183 536.5t485 198.5q281 0 455 -192t174 -504zM1305 686q0 296 -152.5 466.5t-402.5 170.5q-248 0 -401.5 -168.5t-153.5 -458.5
q0 -281 151 -457t397 -176q119 0 221 41.5t178 119t119.5 196.5t43.5 266z" />
    <glyph glyph-name="Oacute" unicode="&#xd3;" horiz-adv-x="1492" 
d="M1022 1718l-315 -237l-76 30l301 254zM1395 713q0 -342 -179 -539t-481 -197q-185 0 -330.5 88.5t-226 247.5t-80.5 361q0 338 183 536.5t485 198.5q281 0 455 -192t174 -504zM1305 686q0 296 -152.5 466.5t-402.5 170.5q-248 0 -401.5 -168.5t-153.5 -458.5
q0 -281 151 -457t397 -176q119 0 221 41.5t178 119t119.5 196.5t43.5 266z" />
    <glyph glyph-name="Ocircumflex" unicode="&#xd4;" horiz-adv-x="1492" 
d="M1020 1520l-78 -27l-176 188l-182 -198l-68 30l234 250h36zM1395 713q0 -342 -179 -539t-481 -197q-185 0 -330.5 88.5t-226 247.5t-80.5 361q0 338 183 536.5t485 198.5q281 0 455 -192t174 -504zM1305 686q0 296 -152.5 466.5t-402.5 170.5q-248 0 -401.5 -168.5
t-153.5 -458.5q0 -281 151 -457t397 -176q119 0 221 41.5t178 119t119.5 196.5t43.5 266z" />
    <glyph glyph-name="Otilde" unicode="&#xd5;" horiz-adv-x="1492" 
d="M1079 1653q-64 -83 -105.5 -110t-96.5 -27q-35 0 -64.5 15.5t-47 33.5t-46.5 33.5t-62 15.5q-65 0 -127 -109l-55 56q59 73 103 104t94 31q35 0 61.5 -10.5t43.5 -26t32.5 -30.5t36 -25.5t45.5 -10.5q30 0 59.5 23t65.5 82zM1395 713q0 -342 -179 -539t-481 -197
q-185 0 -330.5 88.5t-226 247.5t-80.5 361q0 338 183 536.5t485 198.5q281 0 455 -192t174 -504zM1305 686q0 296 -152.5 466.5t-402.5 170.5q-248 0 -401.5 -168.5t-153.5 -458.5q0 -281 151 -457t397 -176q119 0 221 41.5t178 119t119.5 196.5t43.5 266z" />
    <glyph glyph-name="Odieresis" unicode="&#xd6;" horiz-adv-x="1492" 
d="M997 1573q0 -32 -20.5 -51t-48.5 -19q-31 0 -50.5 21t-19.5 49q0 33 18.5 53.5t51.5 20.5q32 0 50.5 -20t18.5 -54zM639 1577q0 -32 -20 -50t-48 -18q-31 0 -50 19.5t-19 46.5q0 33 18 53.5t51 20.5q32 0 50 -19t18 -53zM1395 713q0 -342 -179 -539t-481 -197
q-185 0 -330.5 88.5t-226 247.5t-80.5 361q0 338 183 536.5t485 198.5q281 0 455 -192t174 -504zM1305 686q0 296 -152.5 466.5t-402.5 170.5q-248 0 -401.5 -168.5t-153.5 -458.5q0 -281 151 -457t397 -176q119 0 221 41.5t178 119t119.5 196.5t43.5 266z" />
    <glyph glyph-name="multiply" unicode="&#xd7;" 
d="M874 279l-59 -64l-297 299l-297 -299l-61 64l299 296l-299 297l61 60l297 -299l297 299l59 -60l-299 -297z" />
    <glyph glyph-name="Oslash" unicode="&#xd8;" horiz-adv-x="1492" 
d="M1405 1325l-148 -158q60 -74 99 -197.5t39 -262.5q0 -329 -176 -526t-478 -197q-123 0 -241 43t-199 123l-156 -166l-63 61l164 172q-148 179 -148 455q0 334 188.5 530.5t495.5 196.5q118 0 227.5 -44t194.5 -124l139 155zM1141 1161q-61 70 -166.5 112t-216.5 42
q-251 -2 -407 -169t-156 -452q0 -265 120 -411zM1303 682q0 121 -30 233.5t-81 186.5l-823 -885q60 -69 167 -109t216 -40q118 0 219.5 43.5t175 122t115 194t41.5 254.5z" />
    <glyph glyph-name="Ugrave" unicode="&#xd9;" horiz-adv-x="1372" 
d="M846 1509l-72 -26l-311 248l92 41zM1188 1386q-2 -76 -2 -241v-596q0 -288 -131 -430t-379 -142q-231 0 -360.5 136t-129.5 411v584q0 138 -4 278h109q-4 -132 -4 -260v-585q0 -239 104.5 -358.5t300.5 -119.5q87 0 156 24.5t123.5 77t84 142.5t29.5 213v615
q0 125 -4 251h107z" />
    <glyph glyph-name="Uacute" unicode="&#xda;" horiz-adv-x="1372" 
d="M950 1718l-315 -237l-76 30l301 254zM1188 1386q-2 -76 -2 -241v-596q0 -288 -131 -430t-379 -142q-231 0 -360.5 136t-129.5 411v584q0 138 -4 278h109q-4 -132 -4 -260v-585q0 -239 104.5 -358.5t300.5 -119.5q87 0 156 24.5t123.5 77t84 142.5t29.5 213v615
q0 125 -4 251h107z" />
    <glyph glyph-name="Ucircumflex" unicode="&#xdb;" horiz-adv-x="1372" 
d="M956 1520l-77 -27l-177 188l-182 -198l-67 30l233 250h37zM1188 1386q-2 -76 -2 -241v-596q0 -288 -131 -430t-379 -142q-231 0 -360.5 136t-129.5 411v584q0 138 -4 278h109q-4 -132 -4 -260v-585q0 -239 104.5 -358.5t300.5 -119.5q87 0 156 24.5t123.5 77t84 142.5
t29.5 213v615q0 125 -4 251h107z" />
    <glyph glyph-name="Udieresis" unicode="&#xdc;" horiz-adv-x="1372" 
d="M958 1575q0 -32 -20 -51t-49 -19q-31 0 -50.5 21t-19.5 49q0 33 18.5 53.5t51.5 20.5q32 0 50.5 -20t18.5 -54zM600 1579q0 -32 -19.5 -50t-48.5 -18q-31 0 -50 19.5t-19 46.5q0 33 18 53.5t51 20.5q32 0 50 -19t18 -53zM1188 1386q-2 -76 -2 -241v-596q0 -288 -131 -430
t-379 -142q-231 0 -360.5 136t-129.5 411v584q0 138 -4 278h109q-4 -132 -4 -260v-585q0 -239 104.5 -358.5t300.5 -119.5q87 0 156 24.5t123.5 77t84 142.5t29.5 213v615q0 125 -4 251h107z" />
    <glyph glyph-name="Yacute" unicode="&#xdd;" horiz-adv-x="1050" 
d="M793 1718l-316 -237l-76 30l301 254zM1042 1386q-133 -239 -237 -432q-25 -47 -110 -201.5t-124 -230.5v-168q0 -250 4 -354h-102q2 66 2 342v174q-37 72 -119.5 228t-117.5 223q-70 135 -228 419h113l364 -708q9 -18 21.5 -46.5t13.5 -31.5h2q26 60 35 78l377 708h106z
" />
    <glyph glyph-name="Thorn" unicode="&#xde;" horiz-adv-x="1036" 
d="M967 729q0 -120 -67.5 -212t-179.5 -138.5t-249 -46.5h-162q0 -69 2 -183.5t2 -148.5h-106q6 294 6 428v547q0 293 -2 414h102q-4 -172 -4 -277q61 4 176 4q249 0 365.5 -94.5t116.5 -292.5zM874 725q0 311 -374 311q-19 0 -59.5 1t-70.5 0.5t-61 -3.5v-622h170
q117 0 203 30t139 101.5t53 181.5z" />
    <glyph glyph-name="germandbls" unicode="&#xdf;" horiz-adv-x="989" 
d="M948 281q0 -143 -78 -224.5t-225 -81.5q-50 0 -108 15.5t-93 38.5l19 88q34 -27 87.5 -46.5t104.5 -19.5q98 0 150.5 57.5t52.5 161.5q0 71 -40 131.5t-122 130.5q-101 88 -138.5 155t-37.5 155q0 118 133 248q70 70 70 149q0 71 -54 118.5t-153 47.5q-140 0 -199 -88
t-59 -252v-1065h-88v1090q0 184 87.5 288.5t262.5 104.5q139 0 215 -70t76 -170q0 -63 -26.5 -110.5t-84.5 -106.5q-30 -31 -47 -52.5t-32 -57t-15 -72.5q0 -68 34.5 -124.5t121.5 -129.5q99 -84 142.5 -156t43.5 -153z" />
    <glyph glyph-name="agrave" unicode="&#xe0;" horiz-adv-x="940" 
d="M594 1137l-72 -27l-311 248l92 41zM901 10q-1 -1 -9.5 -5.5t-9.5 -5t-8.5 -4.5t-9.5 -4.5t-9 -3.5t-10 -3.5t-9.5 -2.5t-11 -2.5t-11 -1t-12.5 -0.5q-61 0 -103.5 38t-42.5 130q-77 -89 -148.5 -128.5t-162.5 -39.5q-119 0 -187.5 69t-68.5 183q0 212 248 291
q48 14 152 34t167 28v104q0 116 -46.5 171.5t-151.5 55.5q-73 0 -150 -33t-133 -100l-22 94q138 119 319 119q134 0 204 -74.5t70 -216.5v-550q0 -53 20 -75t60 -22q29 0 70 29zM655 242v264q-173 -18 -305 -60q-98 -33 -135 -83t-37 -121q0 -88 49.5 -136.5t137.5 -48.5
q151 0 290 185z" />
    <glyph glyph-name="aacute" unicode="&#xe1;" horiz-adv-x="940" 
d="M752 1350l-316 -238l-76 31l302 254zM901 10q-1 -1 -9.5 -5.5t-9.5 -5t-8.5 -4.5t-9.5 -4.5t-9 -3.5t-10 -3.5t-9.5 -2.5t-11 -2.5t-11 -1t-12.5 -0.5q-61 0 -103.5 38t-42.5 130q-77 -89 -148.5 -128.5t-162.5 -39.5q-119 0 -187.5 69t-68.5 183q0 212 248 291
q48 14 152 34t167 28v104q0 116 -46.5 171.5t-151.5 55.5q-73 0 -150 -33t-133 -100l-22 94q138 119 319 119q134 0 204 -74.5t70 -216.5v-550q0 -53 20 -75t60 -22q29 0 70 29zM655 242v264q-173 -18 -305 -60q-98 -33 -135 -83t-37 -121q0 -88 49.5 -136.5t137.5 -48.5
q151 0 290 185z" />
    <glyph glyph-name="acircumflex" unicode="&#xe2;" horiz-adv-x="940" 
d="M731 1149l-78 -27l-176 189l-182 -199l-68 31l234 250h37zM901 10q-1 -1 -9.5 -5.5t-9.5 -5t-8.5 -4.5t-9.5 -4.5t-9 -3.5t-10 -3.5t-9.5 -2.5t-11 -2.5t-11 -1t-12.5 -0.5q-61 0 -103.5 38t-42.5 130q-77 -89 -148.5 -128.5t-162.5 -39.5q-119 0 -187.5 69t-68.5 183
q0 212 248 291q48 14 152 34t167 28v104q0 116 -46.5 171.5t-151.5 55.5q-73 0 -150 -33t-133 -100l-22 94q138 119 319 119q134 0 204 -74.5t70 -216.5v-550q0 -53 20 -75t60 -22q29 0 70 29zM655 242v264q-173 -18 -305 -60q-98 -33 -135 -83t-37 -121q0 -88 49.5 -136.5
t137.5 -48.5q151 0 290 185z" />
    <glyph glyph-name="atilde" unicode="&#xe3;" horiz-adv-x="940" 
d="M778 1303q-64 -83 -106 -110.5t-97 -27.5q-35 0 -64.5 15.5t-47.5 34t-46 34t-61 15.5q-65 0 -127 -109l-55 55q58 74 102.5 105t94.5 31q35 0 61.5 -10.5t43.5 -26t32.5 -30.5t36 -25.5t45.5 -10.5q30 0 58.5 22.5t66.5 82.5zM901 10q-1 -1 -9.5 -5.5t-9.5 -5t-8.5 -4.5
t-9.5 -4.5t-9 -3.5t-10 -3.5t-9.5 -2.5t-11 -2.5t-11 -1t-12.5 -0.5q-61 0 -103.5 38t-42.5 130q-77 -89 -148.5 -128.5t-162.5 -39.5q-119 0 -187.5 69t-68.5 183q0 212 248 291q48 14 152 34t167 28v104q0 116 -46.5 171.5t-151.5 55.5q-73 0 -150 -33t-133 -100l-22 94
q138 119 319 119q134 0 204 -74.5t70 -216.5v-550q0 -53 20 -75t60 -22q29 0 70 29zM655 242v264q-173 -18 -305 -60q-98 -33 -135 -83t-37 -121q0 -88 49.5 -136.5t137.5 -48.5q151 0 290 185z" />
    <glyph glyph-name="adieresis" unicode="&#xe4;" horiz-adv-x="940" 
d="M717 1214q0 -32 -21 -50.5t-49 -18.5q-31 0 -50 20t-19 49q0 34 17.5 54t51.5 20q31 0 50.5 -20.5t19.5 -53.5zM358 1219q0 -32 -19.5 -50t-47.5 -18q-32 0 -51 19t-19 47q0 33 18 53t52 20q31 0 49 -19t18 -52zM901 10q-1 -1 -9.5 -5.5t-9.5 -5t-8.5 -4.5t-9.5 -4.5
t-9 -3.5t-10 -3.5t-9.5 -2.5t-11 -2.5t-11 -1t-12.5 -0.5q-61 0 -103.5 38t-42.5 130q-77 -89 -148.5 -128.5t-162.5 -39.5q-119 0 -187.5 69t-68.5 183q0 212 248 291q48 14 152 34t167 28v104q0 116 -46.5 171.5t-151.5 55.5q-73 0 -150 -33t-133 -100l-22 94
q138 119 319 119q134 0 204 -74.5t70 -216.5v-550q0 -53 20 -75t60 -22q29 0 70 29zM655 242v264q-173 -18 -305 -60q-98 -33 -135 -83t-37 -121q0 -88 49.5 -136.5t137.5 -48.5q151 0 290 185z" />
    <glyph glyph-name="aring" unicode="&#xe5;" horiz-adv-x="940" 
d="M655 1245q0 -67 -49.5 -116.5t-116.5 -49.5q-68 0 -114.5 46.5t-46.5 113.5q0 73 47 119.5t119 46.5q71 0 116 -46t45 -114zM901 10q-1 -1 -9.5 -5.5t-9.5 -5t-8.5 -4.5t-9.5 -4.5t-9 -3.5t-10 -3.5t-9.5 -2.5t-11 -2.5t-11 -1t-12.5 -0.5q-61 0 -103.5 38t-42.5 130
q-77 -89 -148.5 -128.5t-162.5 -39.5q-119 0 -187.5 69t-68.5 183q0 212 248 291q48 14 152 34t167 28v104q0 116 -46.5 171.5t-151.5 55.5q-73 0 -150 -33t-133 -100l-22 94q138 119 319 119q134 0 204 -74.5t70 -216.5v-550q0 -53 20 -75t60 -22q29 0 70 29zM588 1243
q0 43 -29 71.5t-70 28.5t-67.5 -27.5t-26.5 -70.5q0 -42 27 -73t67 -31q41 0 70 30t29 72zM655 242v264q-173 -18 -305 -60q-98 -33 -135 -83t-37 -121q0 -88 49.5 -136.5t137.5 -48.5q151 0 290 185z" />
    <glyph glyph-name="ae" unicode="&#xe6;" horiz-adv-x="1533" 
d="M1458 504h-692q-9 -223 84 -335t264 -112q155 0 279 111l16 -80q-147 -111 -338 -111q-114 0 -210.5 62.5t-149.5 169.5q-77 -121 -159 -176.5t-192 -55.5q-123 0 -197.5 71t-74.5 185q0 212 248 285q85 25 342 62q38 335 -215 335q-161 0 -281 -141l-24 109
q164 110 323 110q246 0 273 -207q124 207 350 207q191 0 285.5 -127t68.5 -362zM1368 578q6 158 -67.5 251t-210.5 93q-59 0 -113.5 -22.5t-99 -64t-74.5 -108t-37 -149.5h602zM686 301l-3 51t-3.5 72t-1.5 84q-152 -15 -251.5 -38.5t-152.5 -58t-73.5 -73.5t-20.5 -94
q0 -86 51 -136.5t142 -50.5q87 0 164 55t149 189z" />
    <glyph glyph-name="ccedilla" unicode="&#xe7;" horiz-adv-x="909" 
d="M870 915l-34 -96q-103 92 -271 92q-170 0 -274.5 -120.5t-104.5 -311.5q0 -104 30 -185.5t82.5 -131.5t119.5 -75.5t145 -25.5q142 0 256 86l21 -86q-58 -39 -136 -61.5t-159 -22.5h-4l-9 -92q57 0 95.5 -38.5t38.5 -102.5q0 -73 -66.5 -127.5t-177.5 -48.5l-4 70
q72 -9 121 21.5t49 74.5q0 101 -137 90l18 160q-174 25 -274.5 153.5t-100.5 321.5q0 249 136.5 391.5t367.5 142.5q153 0 272 -78z" />
    <glyph glyph-name="egrave" unicode="&#xe8;" horiz-adv-x="966" 
d="M664 1137l-72 -27l-311 248l92 41zM895 602q0 -48 -6 -104h-703v-33q0 -203 98.5 -303.5t258.5 -100.5q151 0 276 109l15 -92q-144 -101 -324 -101q-85 0 -159.5 31.5t-133 91t-92 154t-33.5 213.5q0 242 122 384t316 142q169 0 267 -105.5t98 -285.5zM801 606
q0 142 -73 227t-210 85q-124 0 -216.5 -89.5t-111.5 -255.5h607q0 6 2 16.5t2 16.5z" />
    <glyph glyph-name="eacute" unicode="&#xe9;" horiz-adv-x="966" 
d="M809 1350l-315 -238l-76 31l301 254zM895 602q0 -48 -6 -104h-703v-33q0 -203 98.5 -303.5t258.5 -100.5q151 0 276 109l15 -92q-144 -101 -324 -101q-85 0 -159.5 31.5t-133 91t-92 154t-33.5 213.5q0 242 122 384t316 142q169 0 267 -105.5t98 -285.5zM801 606
q0 142 -73 227t-210 85q-124 0 -216.5 -89.5t-111.5 -255.5h607q0 6 2 16.5t2 16.5z" />
    <glyph glyph-name="ecircumflex" unicode="&#xea;" horiz-adv-x="966" 
d="M788 1149l-77 -27l-176 189l-183 -199l-67 31l233 250h37zM895 602q0 -48 -6 -104h-703v-33q0 -203 98.5 -303.5t258.5 -100.5q151 0 276 109l15 -92q-144 -101 -324 -101q-85 0 -159.5 31.5t-133 91t-92 154t-33.5 213.5q0 242 122 384t316 142q169 0 267 -105.5
t98 -285.5zM801 606q0 142 -73 227t-210 85q-124 0 -216.5 -89.5t-111.5 -255.5h607q0 6 2 16.5t2 16.5z" />
    <glyph glyph-name="edieresis" unicode="&#xeb;" horiz-adv-x="966" 
d="M776 1219q0 -32 -20 -51t-49 -19q-31 0 -50.5 20.5t-19.5 49.5q0 33 18.5 53t51.5 20q32 0 50.5 -19.5t18.5 -53.5zM418 1223q0 -32 -19.5 -50t-48.5 -18q-32 0 -50.5 18.5t-18.5 47.5q0 33 18 53t51 20q32 0 50 -18.5t18 -52.5zM895 602q0 -48 -6 -104h-703v-33
q0 -203 98.5 -303.5t258.5 -100.5q151 0 276 109l15 -92q-144 -101 -324 -101q-85 0 -159.5 31.5t-133 91t-92 154t-33.5 213.5q0 242 122 384t316 142q169 0 267 -105.5t98 -285.5zM801 606q0 142 -73 227t-210 85q-124 0 -216.5 -89.5t-111.5 -255.5h607q0 6 2 16.5
t2 16.5z" />
    <glyph glyph-name="igrave" unicode="&#xec;" horiz-adv-x="456" 
d="M399 1135l-71 -27l-312 248l93 41zM276 0h-92q2 72 2 410v159q0 308 -4 404l94 10q0 -59 -1 -188.5t-1 -225.5v-157q0 -344 2 -412z" />
    <glyph glyph-name="iacute" unicode="&#xed;" horiz-adv-x="456" 
d="M446 1343l-315 -237l-76 31l301 254zM276 0h-92q2 72 2 410v159q0 308 -4 404l94 10q0 -59 -1 -188.5t-1 -225.5v-157q0 -344 2 -412z" />
    <glyph glyph-name="icircumflex" unicode="&#xee;" horiz-adv-x="456" 
d="M483 1145l-77 -27l-177 189l-182 -199l-67 31l233 250h37zM276 0h-92q2 72 2 410v159q0 308 -4 404l94 10q0 -59 -1 -188.5t-1 -225.5v-157q0 -344 2 -412z" />
    <glyph glyph-name="idieresis" unicode="&#xef;" horiz-adv-x="456" 
d="M479 1214q0 -32 -20.5 -50.5t-48.5 -18.5q-31 0 -50.5 20.5t-19.5 48.5q0 33 18.5 53.5t51.5 20.5q32 0 50.5 -20t18.5 -54zM121 1219q0 -32 -20 -50t-48 -18q-31 0 -50 19.5t-19 46.5q0 33 18 53t51 20q32 0 50 -18.5t18 -52.5zM276 0h-92q2 72 2 410v159q0 308 -4 404
l94 10q0 -59 -1 -188.5t-1 -225.5v-157q0 -344 2 -412z" />
    <glyph glyph-name="eth" unicode="&#xf0;" horiz-adv-x="1126" 
d="M1032 492q0 -236 -134 -375.5t-341 -139.5q-200 0 -331.5 132.5t-131.5 357.5q0 124 37.5 224.5t104 166t156 100.5t194.5 35q71 0 151.5 -30.5t114.5 -75.5q-49 96 -121.5 187.5t-144.5 139.5l-318 -174l-47 72l287 156q-149 102 -254 147q4 4 84 64q80 -34 260 -160
l272 147l48 -69l-246 -135q162 -125 261 -341.5t99 -428.5zM940 485q0 210 -105 319t-266 109q-76 0 -144.5 -29t-122 -82.5t-85 -137.5t-31.5 -185q0 -102 31 -183.5t84 -133t121.5 -78.5t146.5 -27q162 0 266.5 115.5t104.5 312.5z" />
    <glyph glyph-name="ntilde" unicode="&#xf1;" horiz-adv-x="1081" 
d="M889 1311q-63 -82 -106 -109.5t-97 -27.5q-35 0 -65 15.5t-47.5 33.5t-45.5 33.5t-61 15.5q-67 0 -127 -109l-55 56q58 73 102 104t94 31q41 0 72.5 -16t48 -35.5t42 -35.5t56.5 -16q59 0 125 105zM922 0h-95q4 106 4 313v230q0 109 -15.5 182t-48 114t-76 57.5
t-105.5 16.5q-91 0 -167.5 -51t-152.5 -155v-707h-92q4 166 4 365v243q0 174 -6 365l94 8v-166q86 95 166.5 136.5t177.5 41.5q163 0 236.5 -97.5t73.5 -303.5v-240q0 -294 2 -352z" />
    <glyph glyph-name="ograve" unicode="&#xf2;" horiz-adv-x="1126" 
d="M702 1139l-71 -27l-312 248l93 41zM1030 489q0 -234 -135.5 -373t-341.5 -139q-198 0 -326.5 134.5t-128.5 357.5q0 245 136 384.5t350 139.5q201 0 323.5 -134t122.5 -370zM938 483q0 209 -105 320.5t-264 111.5q-75 0 -143.5 -29.5t-121.5 -83.5t-84.5 -137.5
t-31.5 -183.5q0 -199 108.5 -310.5t268.5 -111.5q162 0 267.5 114.5t105.5 309.5z" />
    <glyph glyph-name="oacute" unicode="&#xf3;" horiz-adv-x="1126" 
d="M844 1350l-316 -238l-75 31l301 254zM1030 489q0 -234 -135.5 -373t-341.5 -139q-198 0 -326.5 134.5t-128.5 357.5q0 245 136 384.5t350 139.5q201 0 323.5 -134t122.5 -370zM938 483q0 209 -105 320.5t-264 111.5q-75 0 -143.5 -29.5t-121.5 -83.5t-84.5 -137.5
t-31.5 -183.5q0 -199 108.5 -310.5t268.5 -111.5q162 0 267.5 114.5t105.5 309.5z" />
    <glyph glyph-name="ocircumflex" unicode="&#xf4;" horiz-adv-x="1126" 
d="M831 1147l-77 -27l-176 189l-183 -199l-67 31l233 250h37zM1030 489q0 -234 -135.5 -373t-341.5 -139q-198 0 -326.5 134.5t-128.5 357.5q0 245 136 384.5t350 139.5q201 0 323.5 -134t122.5 -370zM938 483q0 209 -105 320.5t-264 111.5q-75 0 -143.5 -29.5t-121.5 -83.5
t-84.5 -137.5t-31.5 -183.5q0 -199 108.5 -310.5t268.5 -111.5q162 0 267.5 114.5t105.5 309.5z" />
    <glyph glyph-name="otilde" unicode="&#xf5;" horiz-adv-x="1126" 
d="M889 1300q-63 -82 -106 -109.5t-97 -27.5q-35 0 -65 15.5t-47.5 34t-45.5 34t-61 15.5q-65 0 -127 -109l-55 55q58 73 102 104t94 31q42 0 74 -16t48 -35t41.5 -35t55.5 -16q59 0 125 105zM1030 489q0 -234 -135.5 -373t-341.5 -139q-198 0 -326.5 134.5t-128.5 357.5
q0 245 136 384.5t350 139.5q201 0 323.5 -134t122.5 -370zM938 483q0 209 -105 320.5t-264 111.5q-75 0 -143.5 -29.5t-121.5 -83.5t-84.5 -137.5t-31.5 -183.5q0 -199 108.5 -310.5t268.5 -111.5q162 0 267.5 114.5t105.5 309.5z" />
    <glyph glyph-name="odieresis" unicode="&#xf6;" horiz-adv-x="1126" 
d="M823 1214q0 -32 -20.5 -50.5t-48.5 -18.5q-31 0 -50.5 20t-19.5 49q0 33 18.5 53.5t51.5 20.5q32 0 50.5 -20t18.5 -54zM465 1219q0 -32 -20 -50t-48 -18q-31 0 -50 18.5t-19 47.5q0 33 18 53t51 20q32 0 50 -18.5t18 -52.5zM1030 489q0 -234 -135.5 -373t-341.5 -139
q-198 0 -326.5 134.5t-128.5 357.5q0 245 136 384.5t350 139.5q201 0 323.5 -134t122.5 -370zM938 483q0 209 -105 320.5t-264 111.5q-75 0 -143.5 -29.5t-121.5 -83.5t-84.5 -137.5t-31.5 -183.5q0 -199 108.5 -310.5t268.5 -111.5q162 0 267.5 114.5t105.5 309.5z" />
    <glyph glyph-name="divide" unicode="&#xf7;" 
d="M586 891q0 -28 -20 -48t-48 -20t-47.5 20t-19.5 48t19 49t48 21t48.5 -20.5t19.5 -49.5zM911 535h-788v81h788v-81zM584 272q0 -28 -20 -47.5t-48 -19.5t-46.5 19.5t-18.5 47.5t18 48t47 20t48.5 -19.5t19.5 -48.5z" />
    <glyph glyph-name="oslash" unicode="&#xf8;" horiz-adv-x="1126" 
d="M1069 971l-137 -142q98 -131 98 -340q0 -234 -135.5 -373t-341.5 -139q-186 0 -311 119l-129 -143l-54 51l136 146q-97 130 -97 319q0 245 136 384.5t350 139.5q182 0 301 -110l129 137zM821 815q-97 100 -252 100q-75 0 -143.5 -29.5t-121.5 -83.5t-84.5 -137.5
t-31.5 -183.5q0 -155 72 -264zM938 483q0 161 -70 275l-563 -596q103 -103 260 -103q162 0 267.5 114.5t105.5 309.5z" />
    <glyph glyph-name="ugrave" unicode="&#xf9;" horiz-adv-x="1062" 
d="M680 1137l-72 -27l-311 248l92 41zM907 0h-96v150q-141 -170 -322 -170q-70 0 -127 21.5t-103.5 67t-72.5 124.5t-26 186v276q0 238 -2 318l94 4q-4 -204 -4 -322v-245q0 -349 262 -349q173 0 301 207v408q0 139 -4 295l100 4q-6 -270 -6 -299v-287q0 -85 3 -223t3 -166z
" />
    <glyph glyph-name="uacute" unicode="&#xfa;" horiz-adv-x="1062" 
d="M829 1350l-315 -238l-76 31l301 254zM907 0h-96v150q-141 -170 -322 -170q-70 0 -127 21.5t-103.5 67t-72.5 124.5t-26 186v276q0 238 -2 318l94 4q-4 -204 -4 -322v-245q0 -349 262 -349q173 0 301 207v408q0 139 -4 295l100 4q-6 -270 -6 -299v-287q0 -85 3 -223
t3 -166z" />
    <glyph glyph-name="ucircumflex" unicode="&#xfb;" horiz-adv-x="1062" 
d="M795 1149l-78 -27l-176 189l-183 -199l-67 31l233 250h37zM907 0h-96v150q-141 -170 -322 -170q-70 0 -127 21.5t-103.5 67t-72.5 124.5t-26 186v276q0 238 -2 318l94 4q-4 -204 -4 -322v-245q0 -349 262 -349q173 0 301 207v408q0 139 -4 295l100 4q-6 -270 -6 -299
v-287q0 -85 3 -223t3 -166z" />
    <glyph glyph-name="udieresis" unicode="&#xfc;" horiz-adv-x="1062" 
d="M782 1219q0 -32 -20 -51t-49 -19q-31 0 -50.5 20.5t-19.5 49.5q0 33 18.5 53t51.5 20q32 0 50.5 -19.5t18.5 -53.5zM424 1223q0 -32 -19.5 -50t-48.5 -18q-32 0 -50.5 18.5t-18.5 47.5q0 33 18 53t51 20q32 0 50 -18.5t18 -52.5zM907 0h-96v150q-141 -170 -322 -170
q-70 0 -127 21.5t-103.5 67t-72.5 124.5t-26 186v276q0 238 -2 318l94 4q-4 -204 -4 -322v-245q0 -349 262 -349q173 0 301 207v408q0 139 -4 295l100 4q-6 -270 -6 -299v-287q0 -85 3 -223t3 -166z" />
    <glyph glyph-name="yacute" unicode="&#xfd;" horiz-adv-x="897" 
d="M750 1348l-316 -238l-76 31l301 254zM883 971q-237 -564 -316 -768q-224 -576 -278 -740h-111q117 254 221 529q-16 47 -39.5 109t-44.5 115t-59.5 151t-67.5 172q-151 388 -172 432h105l303 -799q11 -33 20 -76h5q21 73 22 76l311 799h101z" />
    <glyph glyph-name="thorn" unicode="&#xfe;" horiz-adv-x="1099" 
d="M1008 520q0 -129 -38.5 -233t-106.5 -171t-159 -103t-198 -36q-50 0 -122 16.5t-116 43.5q0 -474 4 -576l-98 -2q4 368 4 793v887q0 241 -2 323l92 8v-616q71 66 157.5 103.5t170.5 37.5q193 0 302.5 -119t109.5 -356zM915 500q0 413 -344 413q-74 0 -153 -37.5
t-150 -117.5v-623q120 -76 254 -76q174 0 283.5 115.5t109.5 325.5z" />
    <glyph glyph-name="ydieresis" unicode="&#xff;" horiz-adv-x="897" 
d="M696 1214q0 -32 -20 -50.5t-49 -18.5q-31 0 -50.5 20.5t-19.5 48.5q0 33 18.5 53.5t51.5 20.5q32 0 50.5 -20t18.5 -54zM338 1219q0 -32 -19.5 -50t-48.5 -18q-31 0 -50 19.5t-19 46.5q0 33 18 53t51 20q32 0 50 -18.5t18 -52.5zM883 971q-237 -564 -316 -768
q-224 -576 -278 -740h-111q117 254 221 529q-16 47 -39.5 109t-44.5 115t-59.5 151t-67.5 172q-151 388 -172 432h105l303 -799q11 -33 20 -76h5q21 73 22 76l311 799h101z" />
    <glyph glyph-name="dotlessi" unicode="&#x131;" horiz-adv-x="456" 
d="M276 0h-92q2 72 2 410v159q0 308 -4 404l94 10q0 -59 -1 -188.5t-1 -225.5v-157q0 -344 2 -412z" />
    <glyph glyph-name="Lslash" unicode="&#x141;" horiz-adv-x="915" 
d="M915 102l-12 -102h-698q10 157 10 469v106l-158 -94v99l158 92v162q0 225 -6 552h110q-6 -205 -6 -405v-254l299 176v-96l-299 -176v-543h219q206 0 383 14z" />
    <glyph glyph-name="lslash" unicode="&#x142;" horiz-adv-x="440" 
d="M432 829l-166 -135v-147q0 -375 4 -547h-98q6 204 6 545v80l-166 -136v101l166 135v111q0 338 -4 632l96 2q-4 -340 -4 -624v-51l166 135v-101z" />
    <glyph glyph-name="OE" unicode="&#x152;" horiz-adv-x="1800" 
d="M1741 102l-8 -102h-701q-15 0 -110.5 -9t-167.5 -9q-152 0 -276 51.5t-207 143t-128 218.5t-45 277q0 166 51 302.5t142.5 229t220 143.5t281.5 52q46 0 134 -5t115 -5l654 2l4 -91q-29 1 -84 3t-114 3t-134 1h-231v-557h225q80 0 334 8l-2 -96q-8 3 -159.5 1.5
t-172.5 -1.5h-225v-576h247q250 0 357 16zM1044 537v309q0 376 -4 450q-165 23 -266 23q-256 0 -416.5 -169.5t-160.5 -455.5q0 -183 68.5 -324.5t197 -221.5t297.5 -80q137 0 280 26q4 164 4 443z" />
    <glyph glyph-name="oe" unicode="&#x153;" horiz-adv-x="1785" 
d="M1716 604q0 -46 -6 -92h-700q0 -93 18.5 -169t59 -137.5t110.5 -95.5t166 -34q165 0 278 102l19 -78q-73 -56 -153.5 -78t-182.5 -22q-130 0 -229.5 71.5t-137.5 194.5q-45 -135 -155 -212t-254 -77q-140 0 -243.5 64.5t-155.5 174t-52 247.5q0 231 132.5 380.5
t359.5 149.5q144 0 241 -67.5t136 -204.5q44 129 146.5 200.5t240.5 71.5q180 0 271 -103.5t91 -285.5zM1618 608q3 139 -70 226.5t-211 87.5t-220 -95.5t-101 -240.5h602v22zM911 479q0 86 -18.5 161t-56.5 139t-105.5 101.5t-157.5 37.5q-89 0 -162 -37.5t-119 -100
t-70.5 -141t-24.5 -164.5q0 -117 39.5 -210t124.5 -150.5t204 -57.5q85 0 153 36t109 96.5t62.5 134.5t21.5 155z" />
    <glyph glyph-name="Scaron" unicode="&#x160;" horiz-adv-x="937" 
d="M782 1739l-239 -258h-39l-225 258l79 33l168 -203l181 203zM848 338q0 -158 -111 -259.5t-307 -101.5q-87 0 -178 28t-160 75l17 106q138 -127 335 -127q148 0 226 74.5t78 192.5q0 111 -68.5 179.5t-253.5 149.5q-93 41 -155 86.5t-94 96t-44 98t-12 106.5
q0 157 111.5 262t299.5 105q169 0 285 -72l-22 -100q-110 88 -287 88q-118 0 -204.5 -74t-86.5 -192q0 -125 58 -192t237 -144q176 -76 256 -166t80 -219z" />
    <glyph glyph-name="scaron" unicode="&#x161;" horiz-adv-x="735" 
d="M651 1370l-239 -258h-39l-226 258l80 33l168 -203l180 203zM657 252q0 -117 -87.5 -196t-245.5 -79q-64 0 -134 21.5t-108 44.5l16 100q40 -31 106 -56.5t136 -25.5q109 0 168 46t59 122q0 49 -12 81.5t-45 57.5t-71.5 42t-110.5 41q-68 23 -114.5 52.5t-71.5 65
t-35.5 72.5t-10.5 82q0 120 87.5 195t228.5 75q131 0 219 -53l-27 -90q-92 63 -209 63q-90 0 -149.5 -49.5t-59.5 -130.5q0 -88 51 -132t169 -81q138 -43 194.5 -106.5t56.5 -161.5z" />
    <glyph glyph-name="Ydieresis" unicode="&#x178;" horiz-adv-x="1050" 
d="M772 1573q0 -32 -21 -51t-49 -19q-31 0 -50 20.5t-19 49.5q0 33 18 53.5t51 20.5q32 0 51 -20t19 -54zM414 1577q0 -32 -20 -50t-48 -18q-32 0 -51 19t-19 47q0 33 18.5 53.5t51.5 20.5q32 0 50 -19t18 -53zM1042 1386q-133 -239 -237 -432q-25 -47 -110 -201.5
t-124 -230.5v-168q0 -250 4 -354h-102q2 66 2 342v174q-37 72 -119.5 228t-117.5 223q-70 135 -228 419h113l364 -708q9 -18 21.5 -46.5t13.5 -31.5h2q26 60 35 78l377 708h106z" />
    <glyph glyph-name="Zcaron" unicode="&#x17d;" horiz-adv-x="1091" 
d="M848 1739l-240 -258h-39l-225 258l80 33l168 -203l180 203zM1075 1372l-913 -1288h383q385 0 510 8l-6 -92h-1031l-10 18l905 1282h-348q-305 0 -477 -4l8 90h967z" />
    <glyph glyph-name="zcaron" unicode="&#x17e;" horiz-adv-x="831" 
d="M723 1370l-240 -258h-39l-225 258l80 33l168 -203l180 203zM805 954l-647 -878h327q128 0 318 10l-12 -86h-775l-4 14l654 881h-297q-201 0 -281 -2l8 78h705z" />
    <glyph glyph-name="florin" unicode="&#x192;" 
d="M860 1370l-20 -92q-51 33 -121 33q-52 0 -92 -34t-56 -106q-25 -120 -39 -278h236l-23 -74h-221l-43 -413q-25 -230 -81.5 -330.5t-186.5 -100.5q-46 0 -76 15v88q27 -17 72 -17q50 0 80 20t55.5 91t40.5 207l49 440h-119l11 74h116q23 209 39 278q57 222 248 222
q69 0 131 -23z" />
    <glyph glyph-name="circumflex" unicode="&#x2c6;" horiz-adv-x="534" 
d="M504 1124l-78 -26l-176 188l-182 -199l-68 31l233 250h37z" />
    <glyph glyph-name="caron" unicode="&#x2c7;" horiz-adv-x="528" 
d="M504 1360l-240 -258h-39l-225 258l80 33l168 -203l180 203z" />
    <glyph glyph-name="uni02C9" unicode="&#x2c9;" horiz-adv-x="514" 
d="M444 1161h-383v80h383v-80z" />
    <glyph glyph-name="breve" unicode="&#x2d8;" horiz-adv-x="528" 
d="M479 1335q-3 -118 -66.5 -181.5t-168.5 -63.5q-106 0 -164.5 63t-59.5 184h74q0 -98 41.5 -139t118.5 -41q147 0 147 178h78z" />
    <glyph glyph-name="dotaccent" unicode="&#x2d9;" horiz-adv-x="382" 
d="M252 1257q0 -36 -22 -56.5t-52 -20.5q-34 0 -57 22t-23 53q0 34 22.5 56t57.5 22t54.5 -19.5t19.5 -56.5z" />
    <glyph glyph-name="ring" unicode="&#x2da;" horiz-adv-x="528" 
d="M434 1217q0 -67 -49 -116.5t-117 -49.5t-115 46t-47 113q0 73 47 119.5t119 46.5q71 0 116.5 -46t45.5 -113zM367 1214q0 41 -29 71t-70 30t-67.5 -28t-26.5 -70t27 -73.5t67 -31.5q41 0 70 30t29 72z" />
    <glyph glyph-name="ogonek" unicode="&#x2db;" horiz-adv-x="305" 
d="M268 25q-4 -5 -26 -33t-30.5 -40t-27.5 -39t-28.5 -44.5t-21 -42t-16.5 -46t-5 -42.5q0 -46 22.5 -72t67.5 -26q19 0 51 8l-4 -76q-18 -4 -57 -4q-77 0 -120.5 42.5t-43.5 119.5q0 36 13.5 75.5t43 85t45.5 67.5t51 67h86z" />
    <glyph glyph-name="tilde" unicode="&#x2dc;" horiz-adv-x="622" 
d="M616 1235q-64 -82 -106.5 -109.5t-95.5 -27.5q-35 0 -65 15.5t-47.5 33.5t-45.5 33.5t-61 15.5q-67 0 -127 -109l-56 56q58 73 102.5 104t94.5 31q41 0 72.5 -16t48 -35t42 -35t56.5 -16q29 0 58.5 22.5t66.5 81.5z" />
    <glyph glyph-name="hungarumlaut" unicode="&#x2dd;" horiz-adv-x="542" 
d="M510 1370l-182 -289h-82l157 297zM311 1374l-178 -293h-80l156 305z" />
    <glyph glyph-name="uni03A9" unicode="&#x3a9;" horiz-adv-x="1380" 
d="M1272 0h-412v74q48 41 86 80.5t86 105.5t80 136.5t54 170t22 209.5q0 174 -56 310t-169.5 217t-268.5 81q-226 0 -366 -171t-140 -435q0 -107 21 -203.5t52 -167t78 -137t88 -109.5t93 -87v-74h-411v74h307q-54 45 -103 104.5t-98.5 146t-79 204t-29.5 249.5
q0 191 73 346t208 244.5t307 89.5q267 0 421.5 -185t154.5 -493q0 -120 -28 -233.5t-74.5 -201.5t-98 -155t-108.5 -116h311v-74z" />
    <glyph glyph-name="uni03BC" unicode="&#x3bc;" horiz-adv-x="1062" 
d="M893 0l-90 -2v152q-76 -91 -147.5 -129.5t-157.5 -38.5q-104 0 -166.5 48t-87.5 120l2 -404h-90q4 92 4 324v575q0 236 -4 330l94 6q-2 -102 -2 -336v-235q0 -173 75 -260t189 -87q82 0 152.5 47.5t138.5 157.5v361q0 41 -1 98t-2.5 132t-2.5 114l96 4q-6 -270 -6 -348
v-285q0 -50 3 -170t3 -174z" />
    <glyph glyph-name="pi" unicode="&#x3c0;" horiz-adv-x="1216" 
d="M1106 76l20 -68q-33 -20 -94 -20q-102 0 -154.5 65.5t-52.5 169.5v725h-450v-694q0 -145 -25 -254h-86q27 97 27 252v696q-45 0 -105.5 -12t-99.5 -29q-20 49 -27 72q97 45 250 45h819v-76h-219v-721q0 -164 135 -164q30 0 62 13z" />
    <glyph glyph-name="endash" unicode="&#x2013;" horiz-adv-x="989" 
d="M864 520h-739v84h739v-84z" />
    <glyph glyph-name="emdash" unicode="&#x2014;" horiz-adv-x="1454" 
d="M1329 520h-1204v84h1204v-84z" />
    <glyph glyph-name="quoteleft" unicode="&#x2018;" horiz-adv-x="288" 
d="M248 1462q-64 -124 -92 -253.5t-21 -207.5l-94 -2q2 95 43.5 239.5t103.5 236.5z" />
    <glyph glyph-name="quoteright" unicode="&#x2019;" horiz-adv-x="288" 
d="M248 1466q-2 -94 -44 -238.5t-104 -236.5l-59 13q64 125 93 254t22 206z" />
    <glyph glyph-name="quotesinglbase" unicode="&#x201a;" horiz-adv-x="288" 
d="M248 207q-2 -95 -44 -240t-104 -237l-59 12q64 125 93 254.5t22 206.5z" />
    <glyph glyph-name="quotedblleft" unicode="&#x201c;" horiz-adv-x="552" 
d="M512 1462q-64 -125 -93 -254.5t-22 -206.5l-94 -2q2 95 44 239.5t104 236.5zM248 1462q-64 -124 -92 -253.5t-21 -207.5l-94 -2q2 95 43.5 239.5t103.5 236.5z" />
    <glyph glyph-name="quotedblright" unicode="&#x201d;" horiz-adv-x="552" 
d="M512 1468q-2 -94 -43.5 -237.5t-103.5 -237.5l-62 13q64 125 93 254t22 206zM248 1468q-2 -94 -44 -237.5t-104 -237.5l-59 13q64 125 93 254t22 206z" />
    <glyph glyph-name="quotedblbase" unicode="&#x201e;" horiz-adv-x="552" 
d="M512 207q-2 -95 -43.5 -239t-103.5 -236l-62 12q64 125 93 254.5t22 206.5zM248 207q-2 -94 -44 -238.5t-104 -236.5l-59 12q64 125 93 254.5t22 206.5z" />
    <glyph glyph-name="dagger" unicode="&#x2020;" horiz-adv-x="634" 
d="M592 1051l-246 2l-2 -691h-70l-2 691l-229 -2v67h227v289h78v-289l244 2v-69z" />
    <glyph glyph-name="daggerdbl" unicode="&#x2021;" horiz-adv-x="634" 
d="M592 799l-246 2l-2 -439h-70v439l-231 -2v67h231l-4 228l-227 -2v65h227v250h78l-2 -250l246 2v-67l-246 2v-228l246 2v-69z" />
    <glyph glyph-name="bullet" unicode="&#x2022;" horiz-adv-x="499" 
d="M422 698q0 -74 -50.5 -122t-117.5 -48q-76 0 -125 48.5t-49 117.5q0 79 46.5 127.5t127.5 48.5q77 0 122.5 -48.5t45.5 -123.5z" />
    <glyph glyph-name="ellipsis" unicode="&#x2026;" horiz-adv-x="966" 
d="M860 57q0 -34 -20 -53.5t-49 -19.5q-32 0 -52 19.5t-20 49.5q0 33 19.5 54.5t52.5 21.5t51 -18.5t18 -53.5zM555 53q0 -34 -20.5 -52.5t-49.5 -18.5q-32 0 -52.5 19.5t-20.5 49.5q0 33 20 55.5t53 22.5q32 0 51 -20.5t19 -55.5zM248 53q0 -34 -20.5 -52.5t-49.5 -18.5
q-32 0 -53 20t-21 49q0 33 20.5 55.5t53.5 22.5q32 0 51 -20.5t19 -55.5z" />
    <glyph glyph-name="perthousand" unicode="&#x2030;" horiz-adv-x="1964" 
d="M1886 301q0 -141 -79.5 -224t-198.5 -83q-114 0 -186 79.5t-72 213.5q0 146 77.5 229.5t200.5 83.5t190.5 -75.5t67.5 -223.5zM614 1085q0 -142 -78.5 -224.5t-197.5 -82.5q-115 0 -188.5 77t-73.5 210q0 147 79 231t201 84q123 0 190.5 -74t67.5 -221zM1229 1434
l-1012 -1469h-98l1011 1469h99zM1241 301q0 -141 -78.5 -224t-197.5 -83q-115 0 -187.5 79.5t-72.5 213.5q0 146 77.5 229.5t200.5 83.5t190.5 -75.5t67.5 -223.5zM1810 301q0 116 -52 173.5t-136 57.5q-91 0 -144 -61t-53 -174q0 -114 53.5 -175t141.5 -61q90 0 140 62.5
t50 177.5zM541 1085q0 114 -53.5 174t-135.5 60q-90 0 -144 -64.5t-54 -177.5q0 -114 52.5 -174.5t139.5 -60.5q90 0 142.5 64.5t52.5 178.5zM1165 301q0 116 -52.5 173.5t-137.5 57.5q-91 0 -143 -60.5t-52 -174.5t53 -175t140 -61q90 0 141 62.5t51 177.5z" />
    <glyph glyph-name="guilsinglleft" unicode="&#x2039;" horiz-adv-x="448" 
d="M369 317l-72 -49l-234 250l244 256l62 -47l-199 -209z" />
    <glyph glyph-name="guilsinglright" unicode="&#x203a;" horiz-adv-x="448" 
d="M371 520l-244 -252l-66 47l205 205l-205 205l74 49z" />
    <glyph glyph-name="fraction" unicode="&#x2044;" horiz-adv-x="163" 
d="M635 1427l-1016 -1468h-96l1018 1468h94z" />
    <glyph glyph-name="Euro" unicode="&#x20ac;" 
d="M963 1356l-21 -88q-30 27 -93.5 48t-123.5 21q-80 0 -147.5 -29t-120.5 -87.5t-86.5 -154t-40.5 -220.5h522l-10 -74h-518q-5 -69 6 -215h473l-10 -70h-453q26 -213 119 -322.5t250 -109.5q107 0 227 74l20 -76q-63 -39 -123 -57.5t-143 -18.5q-179 0 -294.5 124
t-149.5 386h-183l11 70h164q-5 69 -5 215h-147l10 74h144q18 275 151.5 419t341.5 144q112 0 230 -53z" />
    <glyph glyph-name="litre" unicode="&#x2113;" horiz-adv-x="956" 
d="M782 119q-32 -39 -60 -65.5t-80 -52.5t-107 -26q-88 0 -138 56q-67 67 -67 219v295q-21 -24 -63.5 -73.5t-63.5 -74.5q-8 7 -29.5 25t-32.5 27q32 38 95 111.5t94 111.5v504q0 157 52.5 236t149.5 79q83 0 125.5 -59t42.5 -134q0 -133 -57.5 -266.5t-163.5 -283.5
q-7 -10 -30.5 -41.5t-32.5 -44.5v-431q0 -92 35.5 -135t93.5 -43q51 0 96 31t92 84zM608 1292q0 49 -19.5 86t-60.5 37q-54 0 -83 -56t-29 -198v-362q6 9 20.5 29.5t20.5 29.5q151 243 151 434z" />
    <glyph glyph-name="trademark" unicode="&#x2122;" horiz-adv-x="1325" 
d="M1235 774h-72l-30 471l-203 -471h-49l-197 469l-37 -469h-65l57 619h59l209 -512l223 512h62zM537 1323h-199v-549h-70v549h-194l2 63h461v-63z" />
    <glyph glyph-name="Omega" unicode="&#x2126;" horiz-adv-x="1380" 
d="M1272 0h-412v74q48 41 86 80.5t86 105.5t80 136.5t54 170t22 209.5q0 174 -56 310t-169.5 217t-268.5 81q-226 0 -366 -171t-140 -435q0 -107 21 -203.5t52 -167t78 -137t88 -109.5t93 -87v-74h-411v74h307q-54 45 -103 104.5t-98.5 146t-79 204t-29.5 249.5
q0 191 73 346t208 244.5t307 89.5q267 0 421.5 -185t154.5 -493q0 -120 -28 -233.5t-74.5 -201.5t-98 -155t-108.5 -116h311v-74z" />
    <glyph glyph-name="estimated" unicode="&#x212e;" horiz-adv-x="1308" 
d="M1243 590h-909v-406q136 -133 323 -133q277 0 435 271q9 -5 34.5 -21.5t40.5 -24.5q-100 -150 -218 -225.5t-292 -75.5q-172 0 -304.5 83.5t-201.5 223t-69 310.5t68 309.5t200.5 221.5t306.5 83q178 0 311 -83t201.5 -221t73.5 -312zM983 668v327q-135 135 -326 135
q-196 0 -323 -133v-329h649z" />
    <glyph glyph-name="partialdiff" unicode="&#x2202;" horiz-adv-x="1105" 
d="M995 1040q0 -186 -53 -407q-23 -92 -54 -178t-79.5 -174.5t-106 -153.5t-136.5 -106t-167 -41q-137 0 -220 97t-83 259q0 138 43.5 266.5t116 221.5t169.5 148.5t200 55.5q101 0 168 -45t102 -115h4q12 90 12 166q0 375 -284 375q-95 0 -181 -53q-5 12 -14 35t-14 34
q36 22 99.5 41t119.5 19q169 0 263.5 -113t94.5 -332zM881 750q-23 92 -91 147t-174 55q-116 0 -217 -85.5t-160 -227.5t-59 -303q0 -130 63.5 -205.5t162.5 -75.5q159 0 284 181.5t191 513.5z" />
    <glyph glyph-name="Delta" unicode="&#x2206;" horiz-adv-x="1155" 
d="M1098 0h-1053v55q83 231 247 690t247 689h71q81 -231 244 -690t244 -689v-55zM999 76q-65 188 -197 566t-198 566q-9 26 -17.5 61t-11.5 46h-4q-5 -21 -30 -107q-333 -943 -398 -1132h856z" />
    <glyph glyph-name="product" unicode="&#x220f;" horiz-adv-x="1376" 
d="M1196 -471h-82v1831h-848v-1831h-84v1905h1014v-1905z" />
    <glyph glyph-name="summation" unicode="&#x2211;" horiz-adv-x="1214" 
d="M1167 -471h-1122v27q116 155 347 466t347 467q-72 102 -201.5 285.5t-237 335t-202.5 285.5v39h1012v-74h-889q118 -167 334.5 -471t282.5 -397q-109 -148 -329.5 -444t-330.5 -445h989v-74z" />
    <glyph glyph-name="minus" unicode="&#x2212;" 
d="M911 535h-788v81h788v-81z" />
    <glyph glyph-name="uni2215" unicode="&#x2215;" horiz-adv-x="163" 
d="M635 1427l-1016 -1468h-96l1018 1468h94z" />
    <glyph glyph-name="uni2219" unicode="&#x2219;" horiz-adv-x="409" 
d="M276 500q0 -32 -20 -52t-49 -20q-32 0 -53 20t-21 50q0 32 20.5 52.5t53.5 20.5q69 0 69 -71z" />
    <glyph glyph-name="radical" unicode="&#x221a;" horiz-adv-x="954" 
d="M977 1491q-66 -253 -197 -758t-198 -758h-72q-35 90 -134 350t-153 400q-63 -32 -106 -57q-5 12 -15.5 35t-15.5 34q114 58 188 92q44 -116 269 -698q59 226 174 680t174 680h86z" />
    <glyph glyph-name="infinity" unicode="&#x221e;" horiz-adv-x="1492" 
d="M1378 602q0 -127 -78.5 -213t-207.5 -86q-114 0 -202 64t-142 159h-5q-60 -97 -146.5 -160t-182.5 -63q-141 0 -220 82.5t-79 206.5q0 131 77 216t214 85q204 0 339 -223h5q26 41 56 77t71.5 70.5t94 55t109.5 20.5q130 0 213.5 -79t83.5 -212zM1288 600
q0 94 -52.5 154.5t-150.5 60.5q-90 0 -161 -56t-138 -161q61 -106 138 -162.5t157 -56.5q102 0 154.5 62t52.5 159zM707 598q-53 96 -135 156.5t-162 60.5q-103 0 -154 -62.5t-51 -160.5q0 -95 58 -154t147 -59q160 0 297 219z" />
    <glyph glyph-name="integral" unicode="&#x222b;" horiz-adv-x="952" 
d="M786 1438q-36 18 -90 18q-87 0 -131.5 -56t-44.5 -159v-1403q0 -135 -72 -209.5t-190 -74.5q-68 0 -113 18q4 12 11.5 37t11.5 37q47 -19 90 -19q178 0 178 213v1407q0 133 71.5 209t192.5 76q62 0 109 -21q-2 -7 -10 -33.5t-13 -39.5z" />
    <glyph glyph-name="approxequal" unicode="&#x2248;" 
d="M930 537q-42 -120 -103 -166.5t-147 -46.5q-42 0 -79 17t-65 41t-54.5 47.5t-59.5 40.5t-68 17q-122 0 -182 -161l-68 39q44 97 106.5 148.5t154.5 51.5q45 0 83.5 -17.5t66 -43t53.5 -51t57 -43t65 -17.5q65 0 103 42.5t67 127.5zM930 782q-42 -120 -103 -166.5
t-147 -46.5q-42 0 -79 17t-65 41t-54.5 48t-59.5 41t-68 17q-121 0 -182 -162l-68 39q44 97 106.5 149t154.5 52q45 0 83.5 -17.5t66 -43t53.5 -51t57 -43t65 -17.5q65 0 103 42.5t67 127.5z" />
    <glyph glyph-name="notequal" unicode="&#x2260;" 
d="M733 971l-86 -203h264v-84h-301l-102 -240h403v-79h-436l-121 -283h-86l121 283h-266v79h299l102 240h-401v84h438l86 203h86z" />
    <glyph glyph-name="lessequal" unicode="&#x2264;" 
d="M872 92h-708v82h708v-82zM872 270l-708 400v39l708 403v-100l-583 -320v-4l583 -319v-99z" />
    <glyph glyph-name="greaterequal" unicode="&#x2265;" 
d="M872 92h-708v82h708v-82zM872 672l-708 -402v99l584 319v4l-584 320v100l708 -401v-39z" />
    <glyph glyph-name="lozenge" unicode="&#x25ca;" horiz-adv-x="1064" 
d="M952 717q-66 -120 -196 -358.5t-195 -358.5h-53q-65 119 -194.5 357.5t-194.5 357.5q65 120 194.5 359.5t194.5 359.5h53q65 -120 195.5 -358.5t195.5 -358.5zM860 717q-55 99 -163 298t-162 298q-55 -100 -163 -298.5t-163 -297.5q55 -100 161.5 -298.5t161.5 -297.5
q86 154 328 596z" />
    <glyph glyph-name="apple" unicode="&#xf8ff;" horiz-adv-x="1617" 
 />
    </font>
</defs>
</svg>
